<?xml version="1.0" standalone="no"?>
<!DOCTYPE svg PUBLIC "-//W3C//DTD SVG 1.1//EN" "http://www.w3.org/Graphics/SVG/1.1/DTD/svg11.dtd" >
<svg xmlns="http://www.w3.org/2000/svg">
<metadata>Generated by IcoMoon</metadata>
<defs>
<font id="icomoon" horiz-adv-x="512">
<font-face units-per-em="512" ascent="480" descent="-32" />
<missing-glyph horiz-adv-x="512" />
<glyph unicode="&#x20;" d="" horiz-adv-x="256" />
<glyph unicode="&#xe000;" d="M512 184.777l-256 198.714-256-198.714v81.019l256 198.713 256-198.714zM448 192v-192h-384v192l192 144z" />
<glyph unicode="&#xe001;" d="M512 184.778l-256 198.713-256-198.714v81.019l256 198.713 256-198.714zM448 192v-192h-128v128h-128v-128h-128v192l192 144z" />
<glyph unicode="&#xe002;" d="M512 176l-96 96v144h-64v-80l-96 96-256-256v-16h64v-160h160v96h64v-96h160v160h64z" />
<glyph unicode="&#xe003;" d="M256 448l-256-256h64l192 192 192-192h64zM96 160v-160h128v128h64v-128h128v160l-160 160z" />
<glyph unicode="&#xe004;" d="M256 416l-256-224h64v-160h128v96h128v-96h128v160h64l-256 224zM240 192h-48v48h48v-48zM240 272h-48v48h48v-48zM320 192h-48v48h48v-48zM320 272h-48v48h48v-48z" />
<glyph unicode="&#xe005;" d="M448 192v-192h-384v192h64v-128h256v128zM512 184.777l-256 198.714-256-198.714v81.019l256 198.713 256-198.714z" />
<glyph unicode="&#xe006;" d="M256 448l-256-256 48-48 48 48 32-192h256l32 192 48-48 48 48-256 256zM256 242.746c-24.994 0-45.256 20.26-45.256 45.254s20.262 45.255 45.256 45.255c24.992 0 45.255-20.262 45.255-45.255 0-24.994-20.263-45.254-45.255-45.254z" />
<glyph unicode="&#xe007;" d="M256 448l-256-256 48-48 48 48 32-192h96v96h64v-96h96l32 192 48-48 48 48-256 256zM256 242.746c-24.994 0-45.256 20.26-45.256 45.254s20.262 45.255 45.256 45.255c24.992 0 45.255-20.262 45.255-45.255 0-24.994-20.263-45.254-45.255-45.254z" />
<glyph unicode="&#xe008;" d="M256 480l-256-192v-96l64 48v-240c0-17.6 14.4-32 32-32h320c17.6 0 32 14.4 32 32v240l64-48v96l-256 192zM416 0.058c-0.017-0.020-0.038-0.041-0.058-0.058h-95.942v160h-128v-160h-95.942c-0.020 0.017-0.041 0.038-0.058 0.058v263.942l160 120 160-120v-263.942z" />
<glyph unicode="&#xe009;" d="M256 480l-256-192v-96l64 48v-240c0-17.6 14.399-32 32-32h320c17.6 0 32 14.4 32 32v240l64-48v96l-256 192zM416 0.058c-0.018-0.020-0.038-0.041-0.059-0.058h-159.941v160h-96v-160h-63.942c-0.020 0.017-0.041 0.038-0.058 0.058v263.942l160 120 160-120v-263.942zM288 256h64v-64h-64z" />
<glyph unicode="&#xe00a;" d="M128 416l-128-160h135l128 160zM0 224h128v-224h-128zM320 416l-160-192v-224h128v96c0 17.674 14.327 32 32 32s32-14.326 32-32v-96h128v224l-160 192z" />
<glyph unicode="&#xe00b;" d="M0-32h256v512h-256v-512zM160 416h64v-64h-64v64zM160 288h64v-64h-64v64zM160 160h64v-64h-64v64zM32 416h64v-64h-64v64zM32 288h64v-64h-64v64zM32 160h64v-64h-64v64zM288 320h224v-32h-224zM288-32h64v128h96v-128h64v288h-224z" />
<glyph unicode="&#xe00c;" d="M448 352v64h-448v-352c0-17.673 14.327-32 32-32h432c26.511 0 48 21.489 48 48v272h-64zM416 64h-384v320h384v-320zM64 320h320v-32h-320zM256 256h128v-32h-128zM256 192h128v-32h-128zM256 128h96v-32h-96zM64 256h160v-160h-160z" />
<glyph unicode="&#xe00d;" d="M432 480c44.182 0 80-35.817 80-80 0-18.010-5.955-34.629-16-48l-32-32-112 112 32 32c13.371 10.045 29.989 16 48 16zM32 112l-32-144 144 32 296 296-112 112-296-296zM357.789 298.211l-224-224-27.578 27.578 224 224 27.578-27.578z" />
<glyph unicode="&#xe00e;" d="M397.042 365.044c-40.701 40.526-58.654 88.728-40.099 107.663s66.592 1.432 107.293-39.095c0.23-0.229 0.459-0.458 0.688-0.688 40.701-40.526 58.654-88.729 40.099-107.663s-66.592-1.431-107.293 39.095c-0.23 0.229-0.459 0.458-0.688 0.688zM195.896 73.026l225.637 225.637c13.607-7.621 27.189-13.070 40.16-16.048l-237.693-237.693-224-76.922 76.922 224 237.69 237.691c1.169-5.179 2.738-10.47 4.718-15.841 2.948-8.001 6.768-16.154 11.348-24.302l-225.65-225.653 26.869-26.869 220.66 220.661c5.448-6.685 11.333-13.223 17.62-19.511 6.339-6.339 12.858-12.233 19.485-17.645l-220.635-220.636 26.869-26.869z" />
<glyph unicode="&#xe00f;" d="M192 160l64 32 224 224-32 32-224-224-32-64zM144.65 46.451c-15.816 33.364-32.833 50.381-66.198 66.197l49.548 136.396 64 38.956 192 192h-96l-192-192-96-320 320 96 192 192v96l-192-192-38.956-64z" />
<glyph unicode="&#xe010;" d="M224 128v-64l-33.6-14.399-108.8 108.799 14.4 33.6h64v-64zM67.2 124.8l89.6-89.6-156.8-67.2zM512 336l-240-240h-16v32l208 208-24 24-200-200h-48v48l200 200-24 24-208-208h-32v16l240 240z" />
<glyph unicode="&#xe011;" d="M424 312l-216-216h-80v80l216 216zM451 339l-80 80 28.029 28.029c9.334 9.334 24.607 9.334 33.941 0l46.059-46.059c9.334-9.334 9.334-24.607 0-33.941l-28.029-28.029zM384 198.209v-166.209h-320v320h176l64 64h-256c-26.4 0-48-21.6-48-48v-352c0-26.4 21.6-48 48-48h352c26.4 0 48 21.6 48 48v239.681l-64-57.472z" />
<glyph unicode="&#xe012;" d="M320 416l-256-256-64-192 192 64 256 256zM512 389.49c0 49.988-40.522 90.51-90.51 90.51-27.789 0-52.648-12.528-69.251-32.239l127.522-127.522c19.712 16.603 32.239 41.462 32.239 69.251zM224 0h288v-32h-288z" />
<glyph unicode="&#xe013;" d="M0-32c64 192 231.5 512 512 512-131.5-105.5-192-352-288-352s-96 0-96 0l-96-160h-32z" />
<glyph unicode="&#xe014;" d="M0-32h32l96 160c0 0 0 0 96 0s156.5 246.5 288 352c-280.5 0-448-320-512-512zM196 192h-36c0 0 88.5 160 224 224 0 0-121.5-107.5-188-224z" />
<glyph unicode="&#xe015;" d="M192 186.667c0 0 101.972 61.18 159.383 37.013 11.901 18.134 23.624 37.668 35.101 57.611-56.163 13.76-130.484 1.376-130.484 1.376s95.106 57.061 153.333 39.2c11.675 21.054 23.027 41.821 33.978 61.152-46.388 3.134-91.311-4.352-91.311-4.352s59.574 35.744 113.289 41.799c16.899 27.43 32.585 48.94 46.711 59.534-280.5 0-448-320-512-512h32l96 160c0 0 32-32 128 0 22.737 7.579 45.474 28.626 67.786 56.967-56.308 14.277-131.786 1.7-131.786 1.7z" />
<glyph unicode="&#xe016;" d="M464.001 287.997l-143.998 143.999 47.999 48 143.999-143.999zM304 384l112-112-64-176-288-128-20.687 20.687 172.403 172.402c2.643-0.707 5.418-1.089 8.284-1.089 17.673 0 32 14.327 32 32s-14.327 32-32 32c-17.673 0-32-14.327-32-32 0-2.865 0.382-5.641 1.089-8.285l-172.402-172.402-20.687 20.687 128 288 176 64z" />
<glyph unicode="&#xe017;" d="M480.002 335.997l-111.999 111.999 32 32 111.999-111.999zM448 304l-16-176c-144 0-352-160-352-160l-26.565 26.565 136.832 136.832c5.487-2.184 11.467-3.397 17.733-3.397 26.51 0 48 21.49 48 48s-21.49 48-48 48c-26.51 0-48-21.49-48-48 0-6.266 1.213-12.245 3.397-17.733l-136.832-136.832-26.565 26.565c0 0 160 208 160 352l176 16 112-112z" />
<glyph unicode="&#xe018;" d="M320 416l16 64h-192l16-64zM320 384h-160l-80-160 128-256h16v224c-17.6 0-32 14.4-32 32v32c0 17.6 14.4 32 32 32h32c17.6 0 32-14.4 32-32v-32c0-17.6-14.4-32-32-32v-224h16l128 256-80 160z" />
<glyph unicode="&#xe019;" d="M325.926 401.778l26.074 78.222h-224l26.074-78.222-74.074-177.778 128-256h64l128 256-74.074 177.778zM307.603 448l-10.667-32h-113.872l-10.667 32h135.206zM256 7.555v187.187c18.641 6.591 32 24.359 32 45.258 0 26.51-21.49 48-48 48s-48-21.49-48-48c0-20.898 13.359-38.667 32-45.258v-187.188l-108.829 217.657 66.162 158.789h117.333l66.161-158.789-108.827-217.656z" />
<glyph unicode="&#xe01a;" d="M258.027 349.974c-21.205-20.571-56.098-55.135-63.634-62.679-58.813-58.807-196.9-222.62-194.357-319.26 96.64-2.551 260.449 135.547 319.263 194.354 7.544 7.545 42.108 42.441 62.673 63.64l-123.945 123.945zM472.339 377.91l-9.023 9.007 48.684 40.222-52.86 52.861-40.222-48.686-9.018 9.039c-27.895 1.631-72.881-25.375-117.215-61.040l118.63-118.63c13.414 16.688 25.524 33.433 35.421 49.356 9.648-36.481-5.979-102.913-117.835-190.941l14.233-14.232c104.866 75.426 155.397 164.117 123.129 243.364 4.189 11.079 6.571 21.232 6.076 29.68z" />
<glyph unicode="&#xe01b;" d="M469.486 437.486c-25.969 25.97-55.528 42.514-84.413 42.514-19.763 0-39.211-7.745-56.979-25.514l-247.871-246.262-80.223-208.224 32-32 208.223 80.225 246.264 247.87c43.738 43.738 26.738 97.653-17.001 141.391zM240.149 93.553l-114.598 114.597 201.804 200.494 113.288-113.288-200.494-201.803z" />
<glyph unicode="&#xe01c;" d="M256 464l-256-256 48-48 48 48v-240h128v96h64v-96h128v240l48-48 48 48-256 256zM132 0h-4v240l4 4v-244zM148 0h-8v252l8 8v-260zM164 0h-8v268l8 8v-276zM180 0h-8v284l8 8v-292zM196 96h-4v-96h-4v300l8 8v-212zM212 96h-8v220l8 8v-228zM228 96h-8v236l8 8v-244zM244 96h-8v252l8 8v-260zM260 96h-8v268l4 4 4-4v-268zM276 96h-8v260l8-8v-252zM292 96h-8v244l8-8v-236zM308 96h-8v228l8-8v-220zM324 0h-4v96h-4v212l8-8v-300zM340 0h-8v292l8-8v-284zM356 0h-8v276l8-8v-268zM372 0h-8v260l8-8v-252zM384 0h-4v244l4-4v-240z" />
<glyph unicode="&#xe01d;" d="M228-12h284v8h-276zM244 4h268v8h-260zM212-28h300v8h-292zM292 52h220v8h-212zM276 36h236v8h-228zM260 20h252v8h-244zM469.486 437.486c-25.969 25.97-55.528 42.514-84.413 42.514-19.764 0-39.211-7.745-56.979-25.514l-247.871-246.261-80.223-208.225 32-32 208.223 80.225 246.265 247.87c43.737 43.738 26.737 97.653-17.002 141.391zM240.149 93.553l-114.598 114.597 201.804 200.494 113.287-113.288-200.493-201.803z" />
<glyph unicode="&#xe01e;" d="M192 384c123.712 0 224-100.289 224-224h-48c0 47.012-18.307 91.209-51.549 124.451s-77.44 51.549-124.451 51.549v48zM192 480c176.73 0 320-143.27 320-320h-48c0 36.74-7.185 72.357-21.355 105.859-13.698 32.384-33.317 61.478-58.312 86.474s-54.090 44.615-86.474 58.312c-33.502 14.17-69.118 21.355-105.859 21.355v48zM287.195 255.196c21.879-21.878 32.798-50.553 32.785-79.225-31.98-47.998-31.98-111.971-31.98-111.971-128 0-224-96-224-96l-18.565 18.565 141.791 141.791c1.558-0.233 3.151-0.356 4.774-0.356 17.673 0 32 14.327 32 32s-14.327 32-32 32c-17.673 0-32-14.327-32-32 0-1.623 0.123-3.217 0.356-4.774l-141.791-141.791-18.565 18.565c0 0 96 96 96 224 0 0 63.999 0 111.999 32 28.664 0 57.327-10.935 79.196-32.804z" />
<glyph unicode="&#xe01f;" d="M192 384v-48c47.011 0 91.209-18.307 124.451-51.549s51.549-77.439 51.549-124.451h48c0 123.711-100.288 224-224 224zM192 480v-48c36.741 0 72.357-7.185 105.859-21.355 32.384-13.697 61.478-33.316 86.474-58.312s44.614-54.090 58.312-86.474c14.17-33.502 21.355-69.119 21.355-105.859h48c0 176.73-143.27 320-320 320zM178.745 237.255l-134.565-134.566 90.51-90.51 134.565 134.565c24.993 24.993 24.994 65.516 0 90.51-24.994 24.995-65.517 24.994-90.51 0.001zM0-32l106.806 18.325-88.481 88.481z" />
<glyph unicode="&#xe020;" d="M160.061 160c-64.025 0-42.181-113.14-160.061-138.637 32.011-21.324 125.898-39.027 192.072 10.668 57.226 42.975 32.013 127.969-32.011 127.969zM505.965 441.965c-32.009 32.007-110.472-72.027-171.617-107.603-60.98-37.464-144.033-112.027-96.021-160.037 48.010-48.013 122.571 35.040 160.036 96.022 35.575 61.148 139.61 139.611 107.602 171.618z" />
<glyph unicode="&#xe021;" d="M257.54 416c-164.546 0-257.54-109.352-257.54-189.347 0-121.887 109.354-190.477 200.308-212.956 90.962-22.488 125.172 18.765 123.714 66.303-1.771 57.75 27.073 58.496 47.52 56.459 20.431-2.051 140.458-29.764 140.458 62.215 0 113.826-89.928 217.326-254.46 217.326zM224 384c17.673 0 32-14.327 32-32s-14.327-32-32-32-32 14.327-32 32 14.327 32 32 32zM80 191.754c-8.973 0-16.246 7.273-16.246 16.246s7.273 16.246 16.246 16.246 16.246-7.273 16.246-16.246-7.273-16.246-16.246-16.246zM128 256c-17.673 0-32 14.327-32 32s14.327 32 32 32 32-14.327 32-32-14.327-32-32-32zM256 128c-35.346 0-64 21.49-64 48s28.654 48 64 48c35.347 0 64-21.49 64-48s-28.653-48-64-48zM368 256c-26.51 0-48 21.49-48 48s21.49 48 48 48 48-21.49 48-48-21.49-48-48-48z" />
<glyph unicode="&#xe022;" d="M256 416c-141.385 0-256-100.288-256-224 0-82.947 51.529-155.359 128.101-194.078 43.186-21.34 80.116-5.816 54.146 30.87-13.888 13.875-22.247 31.728-22.247 51.208 0 44.183 42.98 80 96 80s96-35.817 96-80c0-19.48-8.359-37.332-22.246-51.207-25.97-36.685 10.955-52.209 54.139-30.874 76.576 38.718 128.107 111.132 128.107 194.081 0 123.712-114.615 224-256 224zM64 160c-17.673 0-32 14.326-32 32s14.327 32 32 32 32-14.326 32-32-14.327-32-32-32zM128 260.287c-22.958-13.255-48.732-11.593-57.569 3.713-8.836 15.306 2.611 38.458 25.569 51.713s48.732 11.593 57.569-3.713c8.837-15.306-2.611-38.458-25.569-51.713zM256 288c-35.346 0-64 21.49-64 48s28.654 48 64 48c35.347 0 64-21.49 64-48s-28.653-48-64-48zM384 260.287c-22.958 13.255-34.406 36.407-25.569 51.713s34.611 16.968 57.569 3.713 34.406-36.407 25.569-51.713-34.611-16.968-57.569-3.713zM448 160c-17.673 0-32 14.326-32 32s14.327 32 32 32 32-14.326 32-32-14.327-32-32-32z" />
<glyph unicode="&#xe023;" d="M490.927 458.928c70.41-70.41-55.713-113.366-85.421-143.069-5.505-5.508-10.809-10.808-15.788-15.791l30.319-30.317c6.195-6.196 6.195-16.334 0-22.529l-30.275-30.277c-6.195-6.193-16.334-6.193-22.528 0l-30.164 30.165-188.585-188.583c-32.289-32.293-94.209-60.488-124.248-90.527-9.012 9.012-12.117 12.118-12.117 12.118s-3.108 3.106-12.12 12.119c30.039 30.041 58.235 91.958 90.527 124.252l188.588 188.584-30.162 30.164c-6.197 6.195-6.197 16.332 0 22.527l30.273 30.277c6.198 6.197 16.336 6.197 22.53 0l30.318-30.318c4.98 4.982 10.281 10.28 15.788 15.789 29.704 29.702 72.657 155.824 143.065 85.416zM133.82 73.193l191.801 191.808-28.624 28.625-191.803-191.807c-14.833-14.832-29.705-38.154-44.091-60.715l-0.066-0.103c-7.874-12.345-15.474-24.262-23.192-35.155 10.927 7.744 22.878 15.365 35.257 23.258 22.558 14.384 45.884 29.257 60.718 44.089z" />
<glyph unicode="&#xe024;" d="M384 320h-56c-32 0-8 32-8 96 0 7.555-0.9 13.307-2.474 17.61-7.651 26.779-32.29 46.39-61.526 46.39s-53.875-19.611-61.526-46.39c-1.573-4.303-2.474-10.055-2.474-17.61 0-64 24-96-8-96h-56v-64h64v-248c0-4.4 3.6-8 8-8h16c4.4 0 8-3.6 8-8v-16c0-4.4 3.6-8 8-8h48c4.4 0 8 3.6 8 8v16c0 4.4 3.6 8 8 8h16c4.4 0 8 3.6 8 8v248h64v64zM288 31.196c-15.649-3.189-28.007-15.547-31.196-31.196h-1.607c-3.19 15.649-15.547 28.007-31.196 31.196v224.804h64v-224.804z" />
<glyph unicode="&#xe025;" d="M447.97 163.249c-0.006 0.353-0.015 0.701-0.021 1.053-0.016 0.714-0.035 1.427-0.059 2.14-5.015 157.824-191.89 313.558-191.89 313.558s-186.877-155.734-191.89-313.561c-0.022-0.715-0.044-1.426-0.060-2.141-0.007-0.352-0.015-0.701-0.021-1.053-0.018-1.080-0.028-2.162-0.028-3.248 0-1.184 0.014-2.361 0.035-3.539 0.002-0.098 0.003-0.195 0.007-0.293 2.039-104.266 87.198-188.165 191.957-188.165 104.758 0 189.916 83.899 191.959 188.168 0.002 0.098 0.004 0.196 0.005 0.293 0.021 1.178 0.036 2.357 0.036 3.539 0 1.086-0.012 2.168-0.030 3.249zM383.975 157.63l-0.004-0.203c-0.659-33.643-14.266-65.167-38.313-88.774-24.071-23.636-55.915-36.653-89.658-36.653-6.231 0-12.397 0.447-18.462 1.319 69.528 41.423 116.108 117.352 116.108 204.161 0 9.728-0.59 19.317-1.726 28.74 20.136-36.97 31.032-71.4 32.001-101.813l0.002-0.072c0.016-0.474 0.026-0.946 0.039-1.422l0.014-0.724c0.014-0.728 0.024-1.459 0.024-2.189 0-0.792-0.010-1.581-0.025-2.37z" />
<glyph unicode="&#xe026;" d="M120.037 164.644c-0.004 0.086-0.005 0.17-0.006 0.257-0.018 1.031-0.031 2.060-0.031 3.096 0 0.951 0.009 1.897 0.024 2.842 0.006 0.31 0.013 0.613 0.019 0.922 0.015 0.626 0.033 1.249 0.053 1.874 4.385 138.098 167.903 274.365 167.903 274.365s37.698-31.418 77.378-79.368l-240.587-240.586c-2.869 11.764-4.507 24.010-4.753 36.598zM455.954 171.765c-0.015 0.624-0.029 1.247-0.051 1.872-1.545 48.613-22.809 96.999-49.718 139.293l104.443 104.443-24.628 24.627-448-448 24.627-24.628 93.961 93.962c30.782-38.597 78.205-63.334 131.411-63.334 91.664 0 166.176 73.411 167.965 164.646 0.002 0.086 0.003 0.173 0.003 0.257 0.021 1.030 0.033 2.063 0.033 3.097 0 0.95-0.011 1.896-0.027 2.843-0.006 0.308-0.013 0.613-0.019 0.922zM399.979 165.927l-0.004-0.178c-0.576-29.438-12.483-57.022-33.523-77.678-21.064-20.681-48.928-32.071-78.453-32.071-5.451 0-10.847 0.391-16.154 1.155 60.839 36.244 101.596 102.682 101.596 178.64 0 8.511-0.518 16.902-1.512 25.147 17.619-32.349 27.154-62.475 28.002-89.086l0.002-0.062c0.015-0.415 0.021-0.829 0.033-1.244l0.013-0.634c0.013-0.638 0.021-1.277 0.021-1.916 0-0.692-0.009-1.384-0.021-2.073z" />
<glyph unicode="&#xe027;" d="M256 414.672c-16.239-15.993-37.060-37.931-57.79-63.754-54.639-68.057-84.42-132.376-86.123-186.003-0.018-0.558-0.035-1.115-0.048-1.677l-0.008-0.385-0.009-0.443c-0.013-0.803-0.021-1.607-0.021-2.414 0-0.792 0.009-1.578 0.022-2.365l0.001-0.024 0.010-0.504c0.74-37.844 16.045-73.311 43.095-99.869 27.084-26.589 62.908-41.234 100.871-41.234s73.785 14.645 100.87 41.236c27.047 26.554 42.353 62.019 43.098 99.86l0.001 0.073 0.003 0.166c0.016 0.887 0.028 1.775 0.028 2.665 0 0.811-0.010 1.619-0.023 2.427l-0.007 0.343-0.009 0.467c-0.012 0.519-0.025 1.036-0.043 1.555l-0.004 0.126c-1.704 53.627-31.485 117.946-86.124 186.002-20.731 25.821-41.552 47.759-57.79 63.752zM256 480v0c0 0 186.875-155.734 191.889-313.558 0.025-0.713 0.043-1.426 0.060-2.14 0.006-0.352 0.015-0.7 0.021-1.053 0.018-1.081 0.030-2.163 0.030-3.249 0-1.182-0.015-2.361-0.036-3.539-0.001-0.097-0.003-0.195-0.005-0.293-2.043-104.269-87.201-188.168-191.959-188.168s-189.918 83.899-191.957 188.164c-0.004 0.099-0.005 0.194-0.007 0.293-0.021 1.179-0.035 2.354-0.035 3.539 0 1.086 0.010 2.168 0.028 3.248 0.006 0.353 0.014 0.7 0.021 1.053 0.016 0.716 0.038 1.427 0.060 2.142 5.013 157.827 191.89 313.561 191.89 313.561zM361.981 167.884c0.011-0.627 0.019-1.254 0.019-1.884 0-0.688-0.010-1.377-0.023-2.103l-0.003-0.166-0.001-0.076c-0.597-29.396-12.5-56.947-33.521-77.585-21.065-20.68-48.927-32.070-78.452-32.070-23.481 0-45.906 7.21-64.701 20.561 4.201-0.366 8.437-0.561 12.701-0.561 37.963 0 73.785 14.645 100.87 41.236 27.047 26.554 42.353 62.019 43.098 99.86l0.001 0.073 0.003 0.166c0.016 0.887 0.028 1.775 0.028 2.665 0 0.811-0.010 1.619-0.023 2.428l-0.007 0.343-0.009 0.467c-0.012 0.519-0.025 1.036-0.043 1.555l-0.004 0.126c-0.298 9.381-1.475 19.095-3.474 29.093 14.729-29.854 22.709-57.547 23.491-82.165l0.004-0.102 0.001-0.039c0.012-0.381 0.022-0.762 0.031-1.144l0.008-0.431 0.006-0.247z" />
<glyph unicode="&#xe028;" d="M256 391.981c-13.821-14.195-29.784-31.699-45.673-51.527-52.219-65.161-80.661-126.037-82.249-176.047-0.017-0.53-0.032-1.021-0.043-1.515l-0.007-0.318-0.009-0.442c-0.011-0.71-0.018-1.421-0.018-2.135 0-0.655 0.007-1.307 0.018-1.959l0.012-0.621c0.658-33.634 14.262-65.159 38.307-88.765 24.075-23.635 55.917-36.652 89.662-36.652s65.587 13.017 89.661 36.652c24.036 23.598 37.64 55.104 38.31 88.724v0.024l0.004 0.218c0.013 0.793 0.025 1.587 0.025 2.382 0 0.716-0.009 1.43-0.020 2.144l-0.002 0.080-0.005 0.231-0.008 0.447c-0.011 0.452-0.022 0.903-0.038 1.355l-0.002 0.076-0.003 0.076c-1.589 50.009-30.030 110.885-82.249 176.045-15.89 19.828-31.853 37.331-45.673 51.527zM256 480v0c0 0 186.875-155.734 191.889-313.558 0.025-0.713 0.043-1.426 0.060-2.14 0.006-0.352 0.015-0.7 0.021-1.053 0.018-1.081 0.030-2.163 0.030-3.249 0-1.182-0.015-2.361-0.036-3.539-0.001-0.097-0.003-0.195-0.005-0.293-2.043-104.269-87.201-188.168-191.959-188.168s-189.918 83.899-191.957 188.164c-0.004 0.099-0.005 0.194-0.007 0.293-0.021 1.179-0.035 2.354-0.035 3.539 0 1.086 0.010 2.168 0.028 3.248 0.006 0.353 0.014 0.7 0.021 1.053 0.016 0.716 0.038 1.427 0.060 2.142 5.013 157.827 191.89 313.561 191.89 313.561z" />
<glyph unicode="&#xe029;" d="M416 384v32c0 17.6-14.4 32-32 32h-352c-17.6 0-32-14.4-32-32v-96c0-17.6 14.4-32 32-32h352c17.6 0 32 14.4 32 32v32h64v-128h-288v-64h-16c-8.837 0-16-7.163-16-16v-160c0-8.837 7.163-16 16-16h64c8.837 0 16 7.163 16 16v160c0 8.837-7.163 16-16 16h-16v32h288v192h-96zM35 384h-3v32h3v-32zM51 384h-8v32h8v-32zM67 384h-8v32h8v-32zM83 384h-8v32h8v-32zM99 384h-8v32h8v-32zM115 384h-8v32h8v-32zM131 384h-8v32h8v-32zM147 384h-8v32h8v-32zM163 384h-8v32h8v-32zM179 384h-8v32h8v-32zM195 384h-8v32h8v-32zM211 384h-8v32h8v-32zM227 384h-8v32h8v-32zM243 384h-8v32h8v-32zM259 384h-8v32h8v-32zM275 384h-8v32h8v-32zM291 384h-8v32h8v-32zM307 384h-8v32h8v-32zM323 384h-8v32h8v-32zM339 384h-8v32h8v-32zM355 384h-8v32h8v-32zM371 384h-8v32h8v-32zM384 384h-5v32h5v-32z" />
<glyph unicode="&#xe02a;" d="M512 192v192h-96v32c0 17.6-14.4 32-32 32h-352c-17.6 0-32-14.4-32-32v-96c0-17.6 14.4-32 32-32h352c17.6 0 32 14.4 32 32v32h64v-128h-288v-64h-16c-8.837 0-16-7.163-16-16v-160c0-8.837 7.163-16 16-16h64c8.837 0 16 7.163 16 16v160c0 8.837-7.163 16-16 16h-16v32h288zM384 384h-352v32h352v-32z" />
<glyph unicode="&#xe02b;" d="M448 384h-384v-320h384v320zM512 448v0-448h-512v448h512zM416 96h-320v64l96 160 131.5-160 92.5 64v-32zM320 304c0 26.51 21.49 48 48 48s48-21.49 48-48c0-26.51-21.49-48-48-48s-48 21.49-48 48z" />
<glyph unicode="&#xe02c;" d="M0 416v-416h512v416h-512zM480 32h-448v352h448v-352zM352 304c0 26.51 21.49 48 48 48s48-21.49 48-48c0-26.51-21.49-48-48-48s-48 21.49-48 48zM448 64h-384l96 256 128-160 64 48z" />
<glyph unicode="&#xe02d;" d="M0 416v-384h512v384h-512zM480 64h-32l-96 144-64-48-128 160-96-256h-32v320h448v-320zM352 304c0 26.51 21.49 48 48 48s48-21.49 48-48c0-26.51-21.49-48-48-48s-48 21.49-48 48z" />
<glyph unicode="&#xe02e;" d="M64 352v-320h448v320h-448zM480 85.333l-64 106.667-72.533-60.444-55.467 92.444-192-160v256h384v-234.667zM128 240c0 26.51 21.49 48 48 48s48-21.49 48-48c0-26.51-21.49-48-48-48s-48 21.49-48 48zM448 416h-448v-320h32v288h416z" />
<glyph unicode="&#xe02f;" d="M416 192.113c-32 0-64-32.113-96-32.113s-32 128-96 128-128-64-160-192c0 0 352 0 384 0 0-0.001 0 96.113-32 96.113zM0 384v-352h512v352h-512zM480 64h-448v288h448v-288zM352 272c0 26.51 21.49 48 48 48s48-21.49 48-48c0-26.51-21.49-48-48-48s-48 21.49-48 48z" />
<glyph unicode="&#xe030;" d="M0 384v-320h512v320h-512zM480 160l-96 96-45.898-68.847 91.153-91.153h-45.255l-160 160-192-160v256h448v-192zM64 272c0 26.51 21.49 48 48 48s48-21.49 48-48c0-26.51-21.49-48-48-48s-48 21.49-48 48z" />
<glyph unicode="&#xe031;" d="M0 448v-480h512v480h-512zM448 96h-384v288h384v-288zM416 192l-32 64-64-64-96 160-128-192v-32h320z" />
<glyph unicode="&#xe032;" d="M384 448h-384v-384h384v384zM352 160h-320v256h320v-256zM256 320l-22.857-45.714-73.143 109.714-96-192h256zM416 356.623v-324.623h-355.528l-2.508-23.861 381.897-40.139 40.139 381.896z" />
<glyph unicode="&#xe033;" d="M0 448v-448h512v448h-512zM480 416v-325.154l-125.941 146.932c-8.806 10.272-21.219 16.164-34.059 16.164s-25.253-5.892-34.059-16.164l-148.951-173.778h-93.461l72.914 91.143c3.271 4.090 7.376 6.342 11.557 6.342s8.286-2.252 11.557-6.342l15.867-19.834 18.295 21.954-12.297 15.372c-8.567 10.708-20.749 16.85-33.421 16.85s-24.854-6.142-33.421-16.85l-62.58-78.224v321.589h448zM466.132 64h-292.264l133.333 155.556c3.529 4.118 8.075 6.386 12.799 6.386s9.27-2.268 12.799-6.386l133.333-155.556zM144 356c28.673 0 52-23.327 52-52s-23.327-52-52-52-52 23.327-52 52 23.327 52 52 52zM144 384c-44.183 0-80-35.817-80-80s35.817-80 80-80 80 35.817 80 80-35.817 80-80 80v0z" />
<glyph unicode="&#xe034;" d="M256 264c46.869 0 85-39.477 85-88s-38.131-88-85-88c-46.869 0-85 39.477-85 88s38.131 88 85 88zM480 384h-96l-16.179 40.717c-3.202 12.805-16.621 23.283-29.821 23.283h-164c-13.2 0-26.619-10.478-29.821-23.283l-16.179-40.717h-96c-17.6 0-32-14.4-32-32v-352c0-17.6 14.4-32 32-32h448c17.6 0 32 14.4 32 32v352c0 17.6-14.4 32-32 32zM256 40c-73.336 0-133 61.010-133 136s59.664 136 133 136c73.337 0 133-61.009 133-136s-59.663-136-133-136z" />
<glyph unicode="&#xe035;" d="M480 384h-96l-16.179 40.717c-3.202 12.805-16.621 23.283-29.821 23.283h-164c-13.2 0-26.619-10.478-29.821-23.283l-16.179-40.717h-96c-17.6 0-32-14.4-32-32v-352c0-17.6 14.4-32 32-32h448c17.6 0 32 14.4 32 32v352c0 17.6-14.4 32-32 32zM448 32h-384v288h107.437l25.431 64h118.265l25.431-64h107.436v-288zM256 296c-66.168 0-120-53.832-120-120s53.832-120 120-120 120 53.832 120 120-53.832 120-120 120zM256 104c-39.701 0-72 32.299-72 72s32.299 72 72 72 72-32.299 72-72-32.299-72-72-72z" />
<glyph unicode="&#xe036;" d="M152 176c0-57.438 46.562-104 104-104s104 46.562 104 104-46.562 104-104 104-104-46.562-104-104zM480 352h-112c-8 32-16 64-48 64h-128c-32 0-40-32-48-64h-112c-17.6 0-32-14.4-32-32v-288c0-17.6 14.4-32 32-32h448c17.6 0 32 14.4 32 32v288c0 17.6-14.4 32-32 32zM256 34c-78.425 0-142 63.574-142 142s63.575 142 142 142c78.426 0 142-63.575 142-142s-63.573-142-142-142zM480 256h-64v32h64v-32z" />
<glyph unicode="&#xe037;" d="M416 448h-320c-35.2 0-64-28.8-64-64v-320c0-35.2 28.8-64 64-64h320c35.2 0 64 28.8 64 64v320c0 35.2-28.8 64-64 64zM336 192c0-44.112-35.888-80-80-80s-80 35.888-80 80c0 26.142 12.605 49.393 32.056 64h95.889c19.45-14.607 32.055-37.858 32.055-64zM160 384h32v-64h-32v64zM96 384h32v-64h-32v64zM416 64.114c-0.033-0.039-0.075-0.081-0.114-0.114h-319.772c-0.040 0.033-0.081 0.075-0.114 0.114v191.886h49.128c-10.891-18.828-17.128-40.685-17.128-64 0-70.692 57.308-128 128-128s128 57.308 128 128c0 23.315-6.236 45.172-17.128 64h49.128v-191.886z" />
<glyph unicode="&#xe038;" d="M406.079 332.794c-43.525 61.105-39.44 17.957-81.604 139.842l-44.589 7.364-49.609-366.475c-111.816 63.979-182.336-1.734-164.492-84.443 9.46-43.856 80.716-85.137 150.9-44.39 33.171 19.945 43.836 52.11 48.070 74.919l35.438 271.926c126.445-111.487 86.071-178.946 59.925-256.622 53.749 22.167 137.94 119.944 45.961 257.879z" />
<glyph unicode="&#xe039;" d="M160 384v-263.703c-14.549 4.937-30.821 7.703-48 7.703-61.856 0-112-35.817-112-80s50.144-80 112-80 112 35.817 112 80v151.578l224 61.091v-76.372c-14.549 4.937-30.821 7.703-48 7.703-61.855 0-112-35.817-112-80s50.145-80 112-80 112 35.817 112 80v368l-352-96zM224 249.331v48.669l224 61.091v-48.669l-224-61.091z" />
<glyph unicode="&#xe03a;" d="M160 384l352 96v-368c0-44.183-50.145-80-112-80s-112 35.817-112 80c0 44.183 50.145 80 112 80 17.179 0 33.451-2.766 48-7.703v164.794l-224-61.091v-240c0-44.183-50.144-80-112-80s-112 35.817-112 80c0 44.183 50.144 80 112 80 17.179 0 33.451-2.766 48-7.703v263.703z" />
<glyph unicode="&#xe03b;" d="M480 480l-288-64v-312.020c-20.329 14.82-48.658 24.020-80 24.020-61.856 0-112-35.816-112-80s50.144-80 112-80 112 35.817 112 80v206.708l256 56.889v-143.617c-20.329 14.82-48.658 24.020-80 24.020-61.855 0-112-35.816-112-80s50.145-80 112-80 112 35.817 112 80v368h-32zM480 352.574l-256-56.889v63.426l256 56.889v-63.426z" />
<glyph unicode="&#xe03c;" d="M480 480h32v-368c0-44.183-50.145-80-112-80s-112 35.817-112 80c0 44.184 50.145 80 112 80 31.342 0 59.671-9.2 80-24.020v184.020l-256-56.889v-247.111c0-44.183-50.144-80-112-80s-112 35.817-112 80c0 44.184 50.144 80 112 80 31.342 0 59.671-9.2 80-24.020v312.020l288 64z" />
<glyph unicode="&#xe03d;" d="M480 480l-288-64v-312.020c-20.329 14.82-48.658 24.020-80 24.020-61.856 0-112-35.816-112-80s50.144-80 112-80 112 35.817 112 80v206.708l256 56.889v-143.617c-20.329 14.82-48.658 24.020-80 24.020-61.855 0-112-35.816-112-80s50.145-80 112-80 112 35.817 112 80v368h-32zM112 6c-42.353 0-74 22.174-74 42s31.647 42 74 42 74-22.174 74-42-31.647-42-74-42zM400 70c-42.354 0-74 22.174-74 42s31.646 42 74 42 74-22.174 74-42-31.646-42-74-42zM480 352.574l-256-56.889v63.426l256 56.889v-63.426z" />
<glyph unicode="&#xe03e;" d="M0 480v-512h480v512h-480zM96 0h-64v448h32v-320h32v-128zM224.001 0h-96v128h32v320h32v-320h32v-128zM352 0h-96v128h32v320h32v-320h32v-128zM448 0h-64v128h32v320h32v-448z" />
<glyph unicode="&#xe03f;" d="M440 352l72 64c-6.038 32.334-31.666 57.962-64 64l-64-72v-17.109l-90.735-90.735c-47.034 38.417-79.561 33.168-100.675 15.795-20.49-16.855-28.145-50.262-39.481-60.243-22.896-20.152-79.232 0.076-127.196-52.117-55.501-60.398-11.705-124.791 36.591-173.087 48.295-48.294 112.689-92.092 173.087-36.592 52.194 47.964 31.954 104.312 52.105 127.207 9.98 11.337 43.398 18.979 60.255 39.47 17.371 21.114 22.62 53.642-15.796 100.676l90.736 90.735h17.109zM146.565 50.565l-64 64 26.87 26.869 64-64-26.87-26.869zM240 160c-26.51 0-48 21.49-48 48s21.49 48 48 48 48-21.49 48-48-21.49-48-48-48z" />
<glyph unicode="&#xe040;" d="M96 190.857v-221.715c5.227-0.748 10.567-1.143 16-1.143h16v224.001h-16c-5.433 0-10.773-0.395-16-1.143zM384 192v-224h16c5.434 0 10.773 0.395 16 1.143v221.714c-5.227 0.748-10.566 1.143-16 1.143h-16zM512 224c0 141.385-114.615 256-256 256s-256-114.615-256-256c0-30.709 5.414-60.153 15.328-87.437-9.736-16.601-15.328-35.926-15.328-56.563 0-44.677 26.163-83.239 64-101.216v202.432c-10.063-4.781-19.29-11.030-27.429-18.452-2.996 14.61-4.571 29.739-4.571 45.236 0 123.712 100.288 224 224 224s224-100.288 224-224c0-15.497-1.574-30.626-4.571-45.236-8.14 7.422-17.365 13.671-27.429 18.452v-202.432c37.838 17.977 64 56.539 64 101.216 0 20.637-5.592 39.962-15.328 56.563 9.914 27.284 15.328 56.728 15.328 87.437z" />
<glyph unicode="&#xe041;" d="M256.001 416c-123.713 0-224.001-100.288-224.001-224v-96h32v96c0 106.039 85.961 160 192 160s192-53.961 192-160v-96h32v96c0.001 123.712-100.288 224-223.999 224zM138.667 192h-21.333c-11.734 0-21.334-9.6-21.334-21.333v-117.334c0-11.732 9.6-21.333 21.333-21.333h21.333c11.734 0 21.334 9.601 21.334 21.333v117.334c0 11.733-9.6 21.333-21.333 21.333zM394.666 192h-21.334c-11.731 0-21.331-9.6-21.331-21.333v-117.334c0-11.732 9.6-21.333 21.331-21.333h21.334c11.734 0 21.334 9.601 21.334 21.333v117.334c0.001 11.733-9.599 21.333-21.334 21.333z" />
<glyph unicode="&#xe042;" d="M490.594 399.946c-71.816 10.325-151.166 16.054-234.593 16.054-83.43 0-162.778-5.729-234.597-16.054-13.765-53.863-21.404-113.375-21.404-175.946 0-62.57 7.639-122.083 21.404-175.945 71.819-10.326 151.168-16.055 234.597-16.055 83.427 0 162.776 5.729 234.593 16.055 13.766 53.862 21.406 113.375 21.406 175.945 0 62.571-7.64 122.083-21.406 175.946zM192.001 128v192l160-96-160-96z" />
<glyph unicode="&#xe043;" d="M192 331.075v-150.15l130.033 75.071zM0 384v-320h512v320h-512zM480 96h-448v32h448v-32zM480 160h-448v192h448v-192z" />
<glyph unicode="&#xe044;" d="M39.151 348.73l432.722 115.942 24.845-92.726-432.722-115.942zM64 256v-288h448v288h-448zM224 32v160l128-80-128-80z" />
<glyph unicode="&#xe045;" d="M32 256v-288h480v288h-480zM480 160h-416v32h416v-32zM14.628 414.857l17.372-126.816 475.559 65.144-17.371 126.815-475.56-65.143zM184.497 341.229l-89.771-12.297 54.722 72.094 89.771 12.297-54.722-72.094zM369.767 366.608l-89.771-12.297 54.722 72.094 89.771 12.297-54.722-72.094z" />
<glyph unicode="&#xe046;" d="M256 480c-141.385 0-256-114.615-256-256s114.615-256 256-256 256 114.615 256 256-114.615 256-256 256zM256 423.191c30.187 0 54.658-24.471 54.658-54.659s-24.472-54.658-54.658-54.658c-30.188 0-54.658 24.471-54.658 54.658s24.47 54.659 54.658 54.659zM57.778 272.636c0 30.187 24.471 54.658 54.659 54.658 30.187 0 54.658-24.471 54.658-54.658s-24.471-54.659-54.658-54.659c-30.187 0.001-54.659 24.472-54.659 54.659zM169.201 57.356c-30.187 0-54.658 24.471-54.658 54.658s24.472 54.659 54.658 54.659c30.187 0 54.659-24.472 54.659-54.659s-24.472-54.658-54.659-54.658zM256 192c-17.673 0-32 14.327-32 32s14.327 32 32 32c17.673 0 32-14.327 32-32s-14.327-32-32-32zM342.799 57.031c-30.188 0-54.658 24.471-54.658 54.658s24.471 54.659 54.658 54.659c30.187 0 54.658-24.472 54.658-54.659s-24.472-54.658-54.658-54.658zM399.562 217.652c-30.187 0-54.658 24.471-54.658 54.659s24.472 54.658 54.658 54.658c30.188 0 54.659-24.471 54.659-54.658s-24.47-54.659-54.659-54.659z" />
<glyph unicode="&#xe047;" d="M0 480v-512h512v512h-512zM320 448h64v-64h-64v64zM224 448h64v-64h-64v64zM128 448h64v-64h-64v64zM32 448h64v-64h-64v64zM32 352h192v-256h-192v256zM96 0h-64v64h64v-64zM192 0h-64v64h64v-64zM288 0h-64v64h64v-64zM384 0h-64v64h64v-64zM480 0h-64v64h64v-64zM480 96h-224v256h224v-256zM480 384h-64v64h64v-64z" />
<glyph unicode="&#xe048;" d="M0 448v-448h512v448h-512zM96 32h-64v64h64v-64zM96 128h-64v64h64v-64zM96 256h-64v64h64v-64zM96 352h-64v64h64v-64zM384 32h-256v160h256v-160zM384 256h-256v160h256v-160zM480 32h-64v64h64v-64zM480 128h-64v64h64v-64zM480 256h-64v64h64v-64zM480 352h-64v64h64v-64z" />
<glyph unicode="&#xe049;" d="M0 416v-384h512v384h-512zM96 64h-64v64h64v-64zM96 192h-64v64h64v-64zM96 320h-64v64h64v-64zM384 64h-256v320h256v-320zM480 64h-64v64h64v-64zM480 192h-64v64h64v-64zM480 320h-64v64h64v-64z" />
<glyph unicode="&#xe04a;" d="M0 416v-384h512v384h-512zM96 64h-64v64h64v-64zM96 192h-64v64h64v-64zM96 320h-64v64h64v-64zM384 64h-256v320h256v-320zM480 64h-64v64h64v-64zM480 192h-64v64h64v-64zM480 320h-64v64h64v-64zM192 320v-192l128 96z" />
<glyph unicode="&#xe04b;" d="M192 336c0 44.183 35.817 80 80 80s80-35.817 80-80c0-44.183-35.817-80-80-80s-80 35.817-80 80zM0 336c0 44.183 35.817 80 80 80s80-35.817 80-80c0-44.183-35.817-80-80-80s-80 35.817-80 80zM384 176v48c0 17.6-14.4 32-32 32h-320c-17.6 0-32-14.4-32-32v-160c0-17.6 14.4-32 32-32h320c17.6 0 32 14.4 32 32v48l128-80v224l-128-80zM320 96h-256v96h256v-96z" />
<glyph unicode="&#xe04c;" d="M489.42 351.874c-5.294 0-10.729-1.861-15.718-5.383l-89.702-63.307v52.816c0 26.4-21.6 48-48 48h-288c-26.4 0-48-21.6-48-48v-224c0-26.4 21.6-48 48-48h288c26.4 0 48 21.6 48 48v52.815l89.701-63.307c4.989-3.521 10.424-5.382 15.717-5.383 0.001 0 0.001 0 0.003 0 7.044 0 13.477 3.248 17.646 8.911 3.228 4.385 4.934 10.027 4.934 16.318v205.291c-0.001 16.563-11.36 25.229-22.581 25.229z" />
<glyph unicode="&#xe04d;" d="M489.42 351.874c-5.294 0-10.729-1.861-15.718-5.383l-89.702-63.307v52.816c0 26.4-21.6 48-48 48h-288c-26.4 0-48-21.6-48-48v-224c0-26.4 21.6-48 48-48h288c26.4 0 48 21.6 48 48v52.815l89.701-63.307c4.989-3.521 10.424-5.382 15.717-5.383 0.001 0 0.001 0 0.003 0 7.044 0 13.477 3.248 17.646 8.911 3.228 4.385 4.934 10.027 4.934 16.318v205.291c-0.001 16.563-11.36 25.229-22.581 25.229zM480 136.23l-79.021 55.77h-48.979v-80c0-8.673-7.327-16-16-16h-288c-8.673 0-16 7.327-16 16v224c0 8.673 7.327 16 16 16h288c8.673 0 16-7.327 16-16v-80h48.979l79.021 55.77v-175.54z" />
<glyph unicode="&#xe04e;" d="M352 112c0-26.4-21.6-48-48-48h-224c-26.4 0-48 21.6-48 48v192c0 26.4 21.6 48 48 48h224c26.4 0 48-21.6 48-48v-192zM480 320v-224c0-26.4-15.273-32.727-33.941-14.058l-92.117 92.117c-18.668 18.668-18.668 49.215 0 67.882l92.117 92.118c18.668 18.668 33.941 12.341 33.941-14.059z" />
<glyph unicode="&#xe04f;" d="M291.571 64h-199c-33.399 0-60.571 26.317-60.571 58.666v170.667c0 32.349 27.172 58.667 60.571 58.667h199c33.399 0 60.571-26.318 60.571-58.667v-21.7l69.58 60.266c9.591 9.084 19.306 13.69 28.881 13.69 13.561 0 29.396-9.961 29.396-38.033v-199.111c0-10.083-2.061-18.469-6.124-24.924-5.244-8.331-13.727-13.109-23.271-13.109-0.001 0-0.001 0-0.003 0-9.574 0.001-19.287 4.605-28.877 13.688l-69.582 60.267v-21.699c0.001-32.351-27.171-58.668-60.571-58.668zM92.571 320c-15.754 0-28.571-11.963-28.571-26.667v-170.667c0-14.704 12.817-26.666 28.571-26.666h199c15.754 0 28.571 11.962 28.571 26.666v57.005c0 6.58 4.028 12.489 10.153 14.894 6.124 2.402 13.098 0.814 17.573-4.008 0.328-0.354 0.625-0.663 0.902-0.938l94.188-81.577c0.2-0.175 0.396-0.354 0.589-0.537 1.623-1.554 3.029-2.668 4.174-3.453 0.163 1.159 0.278 2.615 0.278 4.393v199.111c0 1.777-0.115 3.233-0.278 4.392-1.145-0.784-2.551-1.899-4.174-3.453-0.192-0.184-0.389-0.362-0.589-0.536l-94.19-81.581c-0.273-0.271-0.573-0.582-0.908-0.942-4.479-4.817-11.445-6.404-17.571-3.996-6.121 2.406-10.146 8.313-10.146 14.891v57.004c0 14.704-12.817 26.667-28.571 26.667h-199.001z" />
<glyph unicode="&#xe050;" d="M432 384h-256c-44 0-80-36-80-80v-256c0-44 36-80 80-80h256c44 0 80 36 80 80v256c0 44-36 80-80 80zM208 32c-26.51 0-48 21.49-48 48s21.49 48 48 48 48-21.49 48-48-21.49-48-48-48zM208 224c-26.51 0-48 21.49-48 48s21.49 48 48 48 48-21.49 48-48-21.49-48-48-48zM304 128c-26.51 0-48 21.49-48 48s21.49 48 48 48 48-21.49 48-48-21.49-48-48-48zM400 32c-26.51 0-48 21.49-48 48s21.49 48 48 48 48-21.49 48-48-21.49-48-48-48zM400 224c-26.51 0-48 21.49-48 48s21.49 48 48 48 48-21.49 48-48-21.49-48-48-48zM414.38 416c-7.465 36.402-39.855 64-78.38 64h-256c-44 0-80-36-80-80v-256c0-38.523 27.598-70.915 64-78.38v318.38c0 17.6 14.4 32 32 32h318.38z" />
<glyph unicode="&#xe051;" d="M160 320h-32v-32h-32v-32h32v-32h32v32h32v32h-32zM320 296c0 13.255 10.745 24 24 24s24-10.745 24-24c0-13.255-10.745-24-24-24s-24 10.745-24 24zM368 248c0 13.255 10.745 24 24 24s24-10.745 24-24c0-13.255-10.745-24-24-24s-24 10.745-24 24zM369.736 394.074c-58.11 0-67.181-34.417-113.735-34.421-46.555 0.004-55.625 34.421-113.735 34.421-93.736 0-142.266-114.737-142.266-196.813 0-77.651 7.296-134.155 36.344-142.085 29.063-7.958 66.085 23.379 102.175 57.36 36.081 33.981 42.174 31.771 71.229 31.771l46.252-1.022 46.252 1.021c29.056 0 35.148 2.211 71.229-31.771 36.090-33.981 73.111-65.318 102.175-57.36 29.048 7.93 36.344 64.434 36.344 142.086 0 82.076-48.529 196.813-142.264 196.813zM144 192c-44.183 0-80 35.817-80 80s35.817 80 80 80 80-35.817 80-80-35.817-80-80-80zM368 192c-44.183 0-80 35.817-80 80s35.817 80 80 80 80-35.817 80-80-35.817-80-80-80z" />
<glyph unicode="&#xe052;" d="M475.931 322.066c-12.993 21.217-28.493 38.025-46.064 49.957-20.042 13.607-42.257 20.507-66.028 20.507-32.558 0-50.831-10.297-66.954-19.382-13.141-7.404-23.52-13.253-40.882-13.255-17.366 0.001-27.746 5.851-40.887 13.255-16.122 9.084-34.395 19.381-66.952 19.381-23.772 0-45.987-6.899-66.027-20.506-17.574-11.932-33.072-28.74-46.066-49.957-22.587-36.88-36.071-85.261-36.071-129.42 0-42.424 2.291-72.609 7.21-94.996 6.673-30.364 18.785-47.547 37.017-52.523 4.014-1.1 8.24-1.656 12.562-1.656 31.438 0 65.118 29.235 96.922 59.182 28.18 26.541 33.171 26.541 49.708 26.541 1.258 0 2.563-0.006 3.925-0.014 1.483-0.008 3.031-0.015 4.653-0.015l44.003-0.974 44.002 0.974c1.622 0 3.169 0.007 4.652 0.015 1.361 0.008 2.669 0.014 3.926 0.014 16.537 0 21.529 0 49.71-26.541 31.803-29.946 65.482-59.182 96.92-59.183 0.001 0 0.001 0 0.002 0 4.32 0 8.547 0.558 12.551 1.653 18.243 4.979 30.354 22.162 37.026 52.525 4.919 22.389 7.211 52.574 7.211 94.998 0 44.159-13.484 92.54-36.069 129.42zM473.534 104.517c-3.554-16.173-8.993-27.103-14.218-28.528-1.257-0.344-2.638-0.519-4.105-0.519-21.375 0.001-57.583 34.095-74.981 50.478-17.039 16.048-27.119 23.831-37.192 28.719-13.453 6.527-24.612 6.527-34.457 6.527-1.314 0-2.683-0.006-4.096-0.014-1.429-0.008-2.92-0.015-4.482-0.015h-0.354l-43.649-0.966-44.003 0.966c-1.563 0-3.054 0.007-4.472 0.014-1.425 0.009-2.791 0.015-4.106 0.015-9.845 0-21.004 0-34.457-6.528-10.072-4.887-20.152-12.67-37.188-28.715-17.401-16.385-53.61-50.479-74.985-50.479-1.468 0-2.85 0.175-4.136 0.526-5.198 1.419-10.635 12.348-14.189 28.521-4.41 20.070-6.464 48.074-6.464 88.127 0 18.804 2.901 39.153 8.391 58.848 5.472 19.634 13.415 38.258 22.969 53.859 10.603 17.312 22.968 30.836 36.753 40.195 14.639 9.94 30.805 14.98 48.051 14.98 24.161 0 36.71-7.071 51.251-15.264 14.451-8.142 30.83-17.37 56.592-17.372 25.752 0.003 42.13 9.23 56.588 17.376 14.531 8.188 27.082 15.26 51.244 15.26 17.244 0 33.411-5.041 48.050-14.98 13.787-9.362 26.152-22.886 36.753-40.196 9.554-15.601 17.496-34.225 22.968-53.859 5.489-19.695 8.391-40.044 8.391-58.848-0.001-40.048-2.056-68.053-6.467-88.128zM320 288c0 17.673 14.327 32 32 32s32-14.327 32-32c0-17.673-14.327-32-32-32s-32 14.327-32 32zM384 224c0 17.673 14.327 32 32 32s32-14.327 32-32c0-17.673-14.327-32-32-32s-32 14.327-32 32zM128 288c17.645 0 32-14.355 32-32s-14.355-32-32-32-32 14.355-32 32 14.355 32 32 32zM128 320c-35.29 0-64-28.71-64-64s28.71-64 64-64 64 28.71 64 64c0 35.29-28.71 64-64 64v0z" />
<glyph unicode="&#xe053;" d="M400 320h-288c-61.856 0-112-50.144-112-112s50.144-112 112-112c44.677 0 83.237 26.162 101.215 64h85.567c17.978-37.838 56.538-64 101.218-64 61.854 0 112 50.145 112 112s-50.143 112-112 112zM168.89 192h-40.89v-40.891h-32v40.891h-40.89v32h40.89v40.89h32v-40.89h40.89v-32zM368 151.109c-13.747 0-24.892 11.145-24.892 24.891s11.145 24.891 24.892 24.891c13.743 0 24.89-11.145 24.89-24.891s-11.147-24.891-24.89-24.891zM432 215.109c-13.747 0-24.892 11.144-24.892 24.891s11.145 24.89 24.892 24.89c13.743 0 24.891-11.144 24.891-24.89s-11.148-24.891-24.891-24.891z" />
<glyph unicode="&#xe054;" d="M482.365 390.598c-46.951 54.725-116.605 89.402-194.365 89.402-141.385 0-256-114.615-256-256s114.615-256 256-256c77.76 0 147.414 34.678 194.364 89.402l-162.364 166.598 162.365 166.598zM352 419.699c19.716 0 35.699-15.982 35.699-35.699s-15.983-35.699-35.699-35.699-35.699 15.983-35.699 35.699c0 19.716 15.983 35.699 35.699 35.699z" />
<glyph unicode="&#xe055;" d="M408.785 305.925c-96.783 71.929-130.133 129.509-152.783 174.074v0c-0.002 0-0.002 0.001-0.002 0.001v-0.001c-22.648-44.565-56-102.146-152.783-174.074-165.018-122.643-9.688-293.834 126.879-199.612-8.898-58.465-39.265-101.086-70.104-119.441v-18.872h192.016v18.87c-30.841 18.354-61.205 60.977-70.106 119.442 136.568-94.223 291.9 76.97 126.883 199.613z" />
<glyph unicode="&#xe056;" d="M393.416 283.614c-29.516 0-56.043-12.298-74.926-32.347-7.998-8.492-21.881-18.556-36.9-27.405 7.055 26.934 29.338 60.85 44.814 75.728 19.82 19.085 31.992 45.915 31.992 75.75 0.003 57.447-45.738 104.048-102.394 104.66-56.66-0.611-102.398-47.213-102.398-104.659 0-29.836 12.172-56.665 31.993-75.75 15.477-14.878 37.76-48.794 44.814-75.728-15.021 8.85-28.903 18.913-36.9 27.405-18.884 20.049-45.41 32.347-74.925 32.347-57.193 0-103.54-46.832-103.54-104.664 0-57.819 46.346-104.669 103.54-104.669 29.521 0 56.041 12.678 74.925 32.726 8.402 8.936 23.222 20.069 39.146 29.316-1.501-73.846-36.766-128.084-72.659-149.453v-18.871h192.007v18.87c-35.896 21.368-71.16 75.608-72.66 149.453 15.926-9.247 30.744-20.384 39.146-29.316 18.883-20.047 45.404-32.726 74.926-32.726 57.193 0 103.539 46.85 103.539 104.669-0.001 57.832-46.346 104.664-103.54 104.664z" />
<glyph unicode="&#xe057;" d="M256 480l-160-256 160-256 160 256z" />
<glyph unicode="&#xe058;" d="M487.024 347.25c-16.872 16.872-40.057 24.976-65.75 24.976-34.444 0-73.404-14.558-107.766-42.062-8.132 24.908-23.24 43.758-41.509 50.811v35.025h48v32h-48v32h-32v-32h-48v-32h48v-35.024c-18.268-7.053-33.376-25.902-41.508-50.809-34.361 27.503-73.321 42.062-107.765 42.060-25.693-0.002-48.879-8.104-65.75-24.976-43.739-43.739-28.542-129.85 33.941-192.333 11.679-11.679 24.186-21.694 37.083-29.993v-46.882c43.829-8.785 99.454-14.043 160-14.043s116.171 5.258 160 14.043v46.88c12.897 8.298 25.404 18.314 37.083 29.993 62.483 62.484 77.68 148.596 33.941 192.334zM81.546 290.678c0.539 0.36 3.423 1.548 9.181 1.549h0.008c15.925 0 43.814-9.293 70.005-35.484 17.287-17.287 29.66-38.181 33.948-57.326 3.059-13.66 0.767-20.748-0.007-21.868-0.536-0.359-3.416-1.549-9.18-1.549-15.928 0-43.822 9.294-70.015 35.486-17.288 17.289-29.662 38.185-33.948 57.33-3.058 13.656-0.766 20.741 0.008 21.862zM430.461 268.81c-4.287-19.145-16.66-40.039-33.946-57.324-26.193-26.193-54.086-35.486-70.015-35.486-5.762 0-8.644 1.188-9.18 1.548-0.773 1.119-3.066 8.204-0.009 21.862 4.286 19.146 16.66 40.041 33.948 57.33 26.192 26.192 54.087 35.486 70.015 35.486 5.764 0 8.645-1.188 9.18-1.548 0.774-1.12 3.067-8.208 0.007-21.868zM96 29.168v-47.125c43.829-8.785 99.454-14.043 160-14.043s116.171 5.258 160 14.043v47.125c-46.914-8.625-101.98-13.168-160-13.168s-113.086 4.543-160 13.168z" />
<glyph unicode="&#xe059;" d="M256 0c-57.294 0-112.881 4.967-156.521 13.984-1.169 0.241-2.328 0.487-3.479 0.734v-32.676c43.829-8.784 99.454-14.042 160-14.042s116.171 5.258 160 14.043v32.676c-1.151-0.247-2.31-0.493-3.479-0.734-43.639-9.018-99.226-13.985-156.521-13.985zM384 49.003v14.997l-16 32h-224l-16-32v-14.997c37.655-5.446 81.37-8.564 128-8.564s90.345 3.118 128 8.564zM500.754 339.172c-14.997 14.997-39.311 14.997-54.307 0-12.725-12.724-14.646-32.154-5.776-46.911l-97.661-58.597 19.253 90.858c16.84-3.581 34.585 4.562 42.474 20.735 9.297 19.062 1.381 42.050-17.68 51.347-19.062 9.297-42.051 1.381-51.348-17.681-7.889-16.174-3.38-35.171 9.811-46.236l-59.104-70.348-21.101 84.403c16.705 4.163 29.085 19.261 29.085 37.256 0 21.208-17.192 38.4-38.399 38.4-21.208 0-38.4-17.192-38.4-38.4 0-17.995 12.38-33.093 29.086-37.256l-21.101-84.403-59.104 70.348c13.19 11.065 17.699 30.062 9.811 46.236-9.297 19.062-32.286 26.978-51.348 17.681-19.061-9.297-26.977-32.286-17.68-51.347 7.888-16.174 25.634-24.316 42.474-20.735l19.252-90.858-97.66 58.597c8.87 14.757 6.947 34.187-5.777 46.911-14.996 14.997-39.31 14.997-54.307 0-14.995-14.996-14.995-39.309 0.001-54.306 12.724-12.724 32.154-14.646 46.91-5.777l90.653-151.089h214.378l90.653 151.089c14.756-8.869 34.186-6.947 46.91 5.777 14.997 14.997 14.997 39.311 0.002 54.306z" />
<glyph unicode="&#xe05a;" d="M96 336h288v-256h-288zM384 352l64 64v64h-64v-32h-96v32h-96v-32h-96v32h-64v-64l64-64h288zM384 400l-16-16h-256l-16 16h288zM64 64h352v-32h-352zM448 16h-416c0 0-24.5-16-32-48h480c-7.5 32-32 48-32 48z" />
<glyph unicode="&#xe05b;" d="M396.797 96h-313.593c14.825-36.516 79.39-64 156.796-64s141.972 27.484 156.797 64zM0-32h45c0 1.29 1.402 5.613 5.57 10.059s8.221 5.941 9.43 5.941h135c26.719 0.5 45 31.5 45 48 0 0-150 0-180 0s-60-32-60-64zM420 32c-30 0-180 0-180 0 0-16.5 18.281-47.5 45-48h135c1.209 0 5.263-1.496 9.43-5.941s5.57-8.769 5.57-10.059h45c0 32-30 64-60 64zM240 128h156.797c-6.501 16.013-22.567 30.287-45.086 41.271 10.369 14.006 16.289 32.023 16.289 54.729 0 80.469-58.467 132.785-99.354 151.882 16.378 9.771 27.354 27.66 27.354 48.118 0 30.928-25.072 56-56 56s-56-25.072-56-56c0-20.458 10.976-38.347 27.354-48.118-40.887-19.097-99.354-71.413-99.354-151.882 0-22.706 5.92-40.723 16.289-54.729-22.518-10.984-38.585-25.259-45.085-41.271h156.796c0 0 0 0 0 0zM160 256v32h64v64h32v-64h64v-32h-64v-64h-32v64h-64z" />
<glyph unicode="&#xe05c;" d="M496 0h-368l-16-32h400zM283.746 224c6.724-103.949-84.766-144.757-116.334-208h312.588c0 35.797 0 92.966 0 176 0 111.17-43.536 191.427-94.956 230.070-2.373 10.093-5.959 21.243-9.954 30.304l-6.18 14.013c-7.102 16.104-22.144 18.229-33.426 4.722l-19.313-23.118c-0.141 0.001-0.283 0.009-0.425 0.009-8.234 0-15.821-0.257-22.854-0.745l-42.266 28.178c-14.645 9.763-26.626 3.351-26.626-14.249v-32.592c-12.982-7.351-23.863-16.243-36.254-25.691-32-24.399-108.926-121.066-160-178.901-47.246-53.5-21.725-96 23-86-2.246-42 32.754-28.5 57-10 55.907 42.657 180.754 22.5 176 96zM387.463 393.462c17.253-17.466 32.154-39.811 43.73-65.751 17.788-39.857 26.807-85.517 26.807-135.711v-144l-48 48v96c0 43.411-7.617 82.489-22.64 116.149-9.204 20.625-20.739 38.084-33.835 51.375l33.938 33.938zM80 185.372c-12.497 0-22.628 10.13-22.628 22.628s10.131 22.627 22.628 22.627c12.496 0 22.627-10.13 22.627-22.627s-10.131-22.628-22.627-22.628zM240.971 336.029c-18.746-18.745-41.539-26.343-50.912-16.971-9.373 9.373-1.775 32.167 16.97 50.912s41.539 26.343 50.913 16.97c9.37-9.372 1.774-32.166-16.971-50.911z" />
<glyph unicode="&#xe05d;" d="M368.010 162.020c10.183 18.365 15.99 39.493 15.99 61.98 0 51.657-30.604 96.162-74.667 116.386 16.362 14.649 26.667 35.925 26.667 59.614 0 44.183-35.817 80-80 80s-80-35.817-80-80c0-23.69 10.305-44.965 26.667-59.614-44.063-20.224-74.667-64.729-74.667-116.386 0-22.487 5.806-43.615 15.99-61.98-66.946-38.733-111.99-111.114-111.99-194.020h448c0 82.906-45.044 155.287-111.99 194.020z" />
<glyph unicode="&#xe05e;" d="M448 480h64v-64h-64zM448 352h64v-64h-64zM448 224h64v-64h-64zM448 96h64v-64h-64zM384 416h64v-64h-64zM384 288h64v-64h-64zM384 160h64v-64h-64zM384 32h64v-64h-64zM320 480h64v-64h-64zM320 352h64v-64h-64zM320 224h64v-64h-64zM320 96h64v-64h-64zM256 416h64v-64h-64zM256 288h64v-64h-64zM256 160h64v-64h-64zM256 32h64v-64h-64zM192 480h64v-64h-64zM192 352h64v-64h-64zM192 224h64v-64h-64zM192 96h64v-64h-64zM128 416h64v-64h-64zM128 288h64v-64h-64zM128 160h64v-64h-64zM128 32h64v-64h-64zM64 480h64v-64h-64zM64 352h64v-64h-64zM64 224h64v-64h-64zM64 96h64v-64h-64zM0 416h64v-64h-64zM0 288h64v-64h-64zM0 160h64v-64h-64zM0 32h64v-64h-64z" />
<glyph unicode="&#xe05f;" d="M512 265.372c0 100.463-29.396 181.969-65.741 182.613 0.146 0.003 0.289 0.015 0.436 0.015h-41.471c0 0-97.4-73.168-237.615-101.877-4.28-22.646-7.015-49.637-7.015-80.751s2.733-58.104 7.015-80.75c140.214-28.709 237.615-101.878 237.615-101.878h41.471c-0.146 0-0.289 0.012-0.436 0.016 36.348 0.644 65.741 82.149 65.741 182.612zM432.412 110.374c-4.691 0-9.766 4.871-12.373 7.774-6.315 7.032-12.396 17.98-17.594 31.664-11.628 30.616-18.033 71.655-18.033 115.562 0 43.905 6.405 84.945 18.033 115.561 5.197 13.684 11.281 24.633 17.594 31.664 2.607 2.906 7.682 7.776 12.373 7.776s9.768-4.872 12.372-7.776c6.317-7.032 12.398-17.979 17.594-31.664 11.629-30.615 18.034-71.656 18.034-115.561 0-43.902-6.405-84.944-18.034-115.562-5.195-13.684-11.281-24.632-17.594-31.664-2.604-2.903-7.68-7.774-12.372-7.774zM125.906 265.372c0 25.975 1.905 51.215 5.526 74.547-23.686-3.277-44.471-5.162-70.17-5.162-33.529 0-33.529 0-33.529 0l-27.733-47.343v-44.085l27.73-47.343c0 0 0 0 33.53 0 25.699 0 46.484-1.887 70.17-5.162-3.618 23.332-5.524 48.573-5.524 74.548zM184.075 158.914l-63.999 12.255 40.921-160.772c2.118-8.317 10.372-12.519 18.343-9.327l59.278 23.726c7.972 3.188 11.164 11.982 7.098 19.542l-61.641 114.576zM432.412 205.635c-1.809 0-3.764 1.877-4.769 2.996-2.435 2.71-4.778 6.93-6.781 12.204-4.481 11.8-6.95 27.617-6.95 44.539s2.469 32.739 6.95 44.539c2.003 5.274 4.348 9.494 6.781 12.204 1.005 1.12 2.96 2.997 4.769 2.997 1.808 0 3.765-1.878 4.769-2.997 2.435-2.71 4.778-6.929 6.78-12.204 4.482-11.799 6.951-27.617 6.951-44.539s-2.469-32.739-6.951-44.539c-2.002-5.274-4.348-9.494-6.78-12.204-1.004-1.119-2.96-2.996-4.769-2.996z" />
<glyph unicode="&#xe060;" d="M64 288h-64v-160h64v32l64.009-18.289c-0.002-0.242-0.009-0.484-0.009-0.729v-44.982c0-17.602 14.399-32 32-32h64c17.6 0 32 14.398 32 32v9.143l160-45.715v297.142l-352-100.57v32zM160 132.57l63.928-18.265v-18.305h-63.928v36.57zM448 365.714v-315.429l64-18.285v352z" />
<glyph unicode="&#xe061;" d="M448 384h-384c-35.2 0-64-28.8-64-64v-192c0-35.2 28.8-64 64-64h384c35.2 0 64 28.8 64 64v192c0 35.2-28.8 64-64 64zM160 128h-32l-64 106.667v-106.667h-32v160h32l64-106.667v106.667h32v-160zM288 256h-64v-32h64v-32h-64v-32h64v-31.999l-96-0.001v160h96v-32zM480 128h-47.999l-32.001 64-32-64h-48v160h32v-128l32 64h32.001l31.999-63.998v127.998h32v-160z" />
<glyph unicode="&#xe062;" d="M320 192c52.935 0 100.935-21.533 135.701-56.299l-45.234-45.234c-23.177 23.178-55.178 37.533-90.467 37.533s-67.289-14.355-90.467-37.533l-45.234 45.234c34.766 34.766 82.766 56.299 135.701 56.299zM93.726 226.274c60.44 60.44 140.799 93.726 226.274 93.726s165.834-33.286 226.275-93.726l-45.255-45.254c-48.353 48.352-112.64 74.98-181.020 74.98-68.381 0-132.667-26.628-181.019-74.981l-45.255 45.255zM494.392 412.781c53.351-22.566 101.258-54.864 142.391-95.998v0l-45.254-45.254c-72.528 72.528-168.96 112.471-271.529 112.471-102.57 0-199-39.943-271.529-112.471l-45.255 45.255c41.134 41.133 89.041 73.431 142.392 95.997 55.252 23.369 113.926 35.219 174.392 35.219s119.139-11.85 174.392-35.219zM288 32c0 17.673 14.327 32 32 32s32-14.327 32-32c0-17.673-14.327-32-32-32s-32 14.327-32 32z" horiz-adv-x="640" />
<glyph unicode="&#xe063;" d="M288 32c0 17.673 14.327 32 32 32s32-14.327 32-32c0-17.673-14.327-32-32-32s-32 14.327-32 32zM320 384c112.8 0 216.385-34.658 297.72-92.509-70.894 95.607-177.943 156.509-297.72 156.509s-226.825-60.902-297.719-156.508c81.335 57.85 184.919 92.508 297.719 92.508zM320 256c76.853 0 147.895-20.56 205.514-55.385-46.052 72.321-120.94 119.385-205.514 119.385s-159.462-47.064-205.514-119.385c57.619 34.825 128.66 55.385 205.514 55.385zM320 128c40.751 0 79.405-5.262 114.121-14.676-23.062 47.089-65.533 78.676-114.121 78.676s-91.059-31.587-114.121-78.676c34.716 9.414 73.369 14.676 114.121 14.676z" horiz-adv-x="640" />
<glyph unicode="&#xe064;" d="M512 224c0 141.385-114.615 256-256 256s-256-114.615-256-256c0-110.027 69.418-203.832 166.843-240.034l-6.843-15.966h192l-6.843 15.966c97.425 36.202 166.843 130.007 166.843 240.034zM243.395 162.587c-11.404 4.894-19.395 16.218-19.395 29.413 0 17.673 14.327 32 32 32s32-14.327 32-32c0-13.195-7.989-24.522-19.393-29.417l-12.607 29.417-12.605-29.413zM269.134 161.354c29.046 6.059 50.866 31.801 50.866 62.646 0 35.347-28.653 64-64 64s-64-28.653-64-64c0-30.846 21.831-56.561 50.88-62.614l-37.312-87.061c-45.615 19.575-77.568 64.892-77.568 117.675 0 70.692 57.308 134 128 134s128-63.308 128-134c0-52.783-31.953-98.1-77.568-117.675l-37.298 87.029zM344.224-13.854l-36.962 86.243c63.223 21.369 108.738 81.173 108.738 151.611 0 88.365-71.634 160-160 160s-160-71.635-160-160c0-70.438 45.515-130.242 108.738-151.611l-36.962-86.243c-79.797 34.244-135.693 113.517-135.693 205.854 0 123.666 100.251 229.917 223.917 229.917s223.917-106.251 223.917-229.917c0-92.337-55.896-171.61-135.693-205.854z" />
<glyph unicode="&#xe065;" d="M320 320c0 35.346-28.653 64-64 64s-64-28.654-64-64c0-22.677 11.804-42.583 29.592-53.952l-81.286-298.048h39.388l8.727 32h135.158l8.728-32h39.388l-81.286 298.048c17.787 11.369 29.591 31.275 29.591 53.952zM297.397 96h-82.794l8.727 32h65.34l8.727-32zM232.058 160l23.942 87.789 23.942-87.789h-47.884zM197.148 32l8.728 32h100.249l8.727-32h-117.704zM332.174 460.737c49.926-27.079 83.826-79.949 83.826-140.737s-33.9-113.658-83.826-140.737c22.033 35.063 35.826 85.135 35.826 140.737s-13.793 105.674-35.826 140.737zM428.174 460.737c49.926-27.079 83.826-79.949 83.826-140.737s-33.9-113.658-83.826-140.737c22.033 35.063 35.826 85.135 35.826 140.737s-13.793 105.674-35.826 140.737zM179.826 179.263c-49.926 27.080-83.826 79.949-83.826 140.737s33.9 113.657 83.826 140.737c-22.034-35.063-35.826-85.135-35.826-140.737s13.792-105.674 35.826-140.737zM0 320c0 60.788 33.9 113.657 83.826 140.737-22.034-35.063-35.826-85.135-35.826-140.737s13.792-105.674 35.826-140.737c-49.926 27.080-83.826 79.949-83.826 140.737z" />
<glyph unicode="&#xe066;" d="M192 224c0 35.346 28.654 64 64 64s64-28.654 64-64c0-35.346-28.654-64-64-64s-64 28.654-64 64zM332.174 364.737c49.926-27.079 83.826-79.949 83.826-140.737s-33.9-113.658-83.826-140.737c22.033 35.063 35.826 85.135 35.826 140.737s-13.793 105.674-35.826 140.737zM144 224c0-55.602 13.792-105.674 35.826-140.737-49.926 27.080-83.826 79.949-83.826 140.737s33.9 113.657 83.826 140.737c-22.034-35.063-35.826-85.135-35.826-140.737zM48 224c0-85.95 27.202-163.092 70.326-215.861-71.151 45.474-118.326 125.157-118.326 215.861s47.175 170.387 118.326 215.861c-43.124-52.769-70.326-129.911-70.326-215.861zM393.676 439.86c71.149-45.473 118.324-125.156 118.324-215.86s-47.175-170.387-118.324-215.86c43.122 52.768 70.324 129.91 70.324 215.86s-27.202 163.092-70.324 215.86z" />
<glyph unicode="&#xe067;" d="M224 96c0 17.673 14.327 32 32 32s32-14.327 32-32c0-17.673-14.327-32-32-32s-32 14.327-32 32zM256 416c-96.026 0-182.161-42.307-240.815-109.286l24.081-21.071c52.789 60.28 130.311 98.357 216.734 98.357s163.945-38.077 216.734-98.357l24.081 21.071c-58.654 66.979-144.788 109.286-240.815 109.286zM256 320c-67.218 0-127.513-29.615-168.571-76.5l24.082-21.071c35.192 40.187 86.874 65.571 144.489 65.571s109.297-25.384 144.489-65.571l24.082 21.071c-41.058 46.885-101.352 76.5-168.571 76.5zM256 224c-38.41 0-72.865-16.923-96.326-43.715l24.082-21.071c17.596 20.094 43.436 32.786 72.244 32.786s54.648-12.692 72.245-32.786l24.081 21.071c-23.461 26.792-57.916 43.715-96.326 43.715z" />
<glyph unicode="&#xe068;" d="M224 288l-128-320h48.596l111.404 97.479 111.406-97.479h48.594l-128 320h-64zM149.024 14.395l42.871 107.179 39.81-34.833-82.681-72.346zM362.978 14.396l-82.68 72.344 39.809 34.833 42.871-107.177zM256 108l-51.507 45.068 41.172 102.932h20.67l41.173-102.932-51.508-45.068zM366.871 415.999c10.893-18.827 17.129-40.685 17.129-63.999s-6.236-45.172-17.129-63.999l27.72-16c13.613 23.534 21.409 50.855 21.409 79.999s-7.796 56.465-21.409 79.999l-27.72-16zM145.128 288.001c-10.89 18.827-17.128 40.685-17.128 63.999s6.236 45.172 17.128 63.999l-27.718 15.999c-13.614-23.534-21.41-50.854-21.41-79.998s7.796-56.464 21.41-79.999l27.718 16zM34.252 480c-21.782-37.655-34.252-81.371-34.252-128s12.47-90.345 34.252-127.999l27.719 16c-19.060 32.947-29.971 71.198-29.971 111.999s10.911 79.052 29.971 112l-27.719 16zM512 352c0 46.63-12.47 90.346-34.253 128v0l-27.717-16c19.060-32.948 29.97-71.199 29.97-112s-10.91-79.053-29.971-112l27.718-16c21.784 37.654 34.253 81.37 34.253 128zM224 352c0 17.673 14.327 32 32 32s32-14.327 32-32c0-17.673-14.327-32-32-32s-32 14.327-32 32z" />
<glyph unicode="&#xe069;" d="M256 480c-141.385 0-256-114.615-256-256 0-70.691 28.653-134.691 74.98-181.019l22.627 22.626c-40.535 40.538-65.607 96.538-65.607 158.393 0 123.712 100.288 224 224 224s224-100.288 224-224c0-61.855-25.072-117.855-65.608-158.393l22.628-22.626c46.326 46.328 74.98 110.328 74.98 181.019 0 141.385-114.615 256-256 256zM256 480c-141.385 0-256-114.615-256-256 0-70.691 28.653-134.691 74.98-181.019l22.627 22.626c-40.535 40.538-65.607 96.538-65.607 158.393 0 123.712 100.288 224 224 224s224-100.288 224-224c0-61.855-25.072-117.855-65.608-158.393l22.628-22.626c46.326 46.328 74.98 110.328 74.98 181.019 0 141.385-114.615 256-256 256v0zM256 384c-88.366 0-160-71.634-160-160 0-44.184 17.909-84.184 46.862-113.137l22.639 22.638c-23.161 23.161-37.486 55.157-37.486 90.499 0 70.684 57.301 127.985 127.985 127.985s127.984-57.301 127.984-127.985c0-35.342-14.325-67.338-37.486-90.499l22.639-22.638c28.955 28.953 46.863 68.953 46.863 113.137 0 88.366-71.635 160-160 160zM301.255 178.745c11.582 11.582 18.745 27.582 18.745 45.255 0 35.346-28.654 64-64 64-35.347 0-64-28.654-64-64 0-17.673 7.164-33.673 18.745-45.255l22.627 22.627c-5.79 5.791-9.372 13.791-9.372 22.628 0 17.673 14.327 32 32 32s32-14.327 32-32c0-8.837-3.582-16.837-9.372-22.628l22.627-22.627zM244 192l-84-224h192l-84 224z" />
<glyph unicode="&#xe06a;" d="M160-32h192l-64 64v232.583c19.124 11.067 32 31.732 32 55.417 0 35.346-28.653 64-64 64s-64-28.654-64-64c0-23.685 12.876-44.349 32-55.417v-232.583l-64-64zM355.918 399.996c17.568-21.914 28.082-49.725 28.082-79.996s-10.515-58.082-28.082-79.996l24.979-19.999c21.96 27.392 35.103 62.156 35.103 99.995s-13.144 72.603-35.103 99.995l-24.979-19.999zM131.102 419.994c-21.959-27.392-35.102-62.156-35.102-99.994s13.143-72.602 35.102-99.994l24.979 19.999c-17.566 21.913-28.081 49.724-28.081 79.995s10.515 58.082 28.082 79.995l-24.98 19.999zM56.164 480c-35.134-43.828-56.164-99.449-56.164-159.991s21.030-116.163 56.164-159.989l24.979 19.998c-30.742 38.349-49.143 87.017-49.143 139.991s18.4 101.643 49.143 139.992l-24.979 19.999zM455.836 480l-24.979-19.999c30.743-38.349 49.143-87.018 49.143-139.992s-18.4-101.644-49.144-139.992l24.979-19.999c35.136 43.828 56.165 99.449 56.165 159.991s-21.029 116.163-56.164 159.991z" />
<glyph unicode="&#xe06b;" d="M256 96c70.692 0 128 57.308 128 128v64h-256v-64c0-70.692 57.308-128 128-128zM448 320h-32v-96c0-88.365-71.635-160-160-160s-160 71.635-160 160v96h-32l-32-32h32v-64c0-95.134 69.196-174.094 160-189.33v-34.67l-64-32h192l-64 32v34.67c90.804 15.236 160 94.196 160 189.33v64h32l-32 32zM384 352c0 70.692-57.307 128-128 128s-128-57.308-128-128v-32h256v32z" />
<glyph unicode="&#xe06c;" d="M420 256v-64c0-43.807-17.059-84.99-48.035-115.966s-72.158-48.034-115.965-48.034c-43.806 0-84.99 17.059-115.965 48.034-30.975 30.976-48.035 72.159-48.035 115.966v64h-28v-64c0-95.135 69.195-174.094 160-189.33v-2.67h-96v-32h256v32h-96v2.67c90.804 15.236 160 94.195 160 189.33v64h-28zM256 480c-70.692 0-128-57.308-128-128v-160c0-70.693 57.308-128 128-128s128 57.307 128 128v160c0 70.692-57.308 128-128 128zM348 400.452c3.314-6.269 6.012-12.912 8-19.852v-92.6h-8v112.452zM332 422.912c2.854-3.057 5.526-6.286 8-9.669v-125.243h-8v134.912zM316 436.901c2.77-1.962 5.439-4.056 8-6.273v-142.628h-8v148.901zM300 446.219c2.732-1.281 5.402-2.674 8-4.18v-154.039h-8v158.219zM284 452.167c2.713-0.759 5.381-1.625 8-2.594v-161.573h-8v164.167zM268 455.304c2.699-0.312 5.367-0.726 8-1.241v-166.063h-8v167.304zM252 455.916c1.328 0.051 2.66 0.084 4 0.084s2.672-0.034 4-0.084v-167.916h-8v167.916zM236 454.062c2.633 0.515 5.301 0.93 8 1.241v-167.303h-8v166.062zM220 449.573c2.619 0.969 5.287 1.834 8 2.594v-164.167h-8v161.573zM204 442.039c2.597 1.506 5.268 2.898 8 4.18v-158.219h-8v154.039zM188 430.628c2.561 2.217 5.231 4.311 8 6.273v-148.901h-8v142.628zM172 413.243c2.474 3.383 5.146 6.612 8 9.669v-134.912h-8v125.243zM156 380.6c1.988 6.94 4.686 13.583 8 19.852v-112.452h-8v92.6zM360 192c0-57.346-46.654-104-104-104s-104 46.654-104 104v64h208v-64z" />
<glyph unicode="&#xe06d;" d="M240 128c44.183 0 80 35.817 80 80v192c0 44.183-35.817 80-80 80s-80-35.817-80-80v-192c0-44.183 35.818-80 80-80zM352 256v-48c0-61.855-50.145-112-112-112s-112 50.145-112 112v48h-32v-48c0-74.119 56.002-135.15 128-143.11v-64.89h-64v-32h160v32h-64v64.89c71.997 7.96 128 68.991 128 143.11v48h-32z" />
<glyph unicode="&#xe06e;" d="M320 400c0 44.183-35.816 80-80 80s-80-35.817-80-80v-172.118l160 160v12.118zM128.587 196.469c-0.387 3.791-0.587 7.637-0.587 11.531v48h-32v-48c0-13.45 1.853-26.467 5.302-38.816l27.285 27.285zM352 208c0-61.855-50.145-112-112-112-33.313 0-63.215 14.557-83.729 37.644l22.69 22.69c14.668-17.324 36.559-28.334 61.039-28.334 44.184 0 80 35.816 80 80v89.373l128.313 128.314-22.627 22.627-105.686-105.686-319-320.315 22.627-22.627 109.986 111.3c22.954-25.155 54.699-42.151 90.387-46.097v-64.889h-64v-32h160v32h-64v64.89c71.997 7.96 128 68.991 128 143.11v48h-32v-48z" />
<glyph unicode="&#xe06f;" d="M229.053 311.954l-229.053-279.954c0-32 32-64 64-64l279.954 229.054c-56.186 14.479-100.421 58.714-114.901 114.9zM291.482 440.452c-21.98-22.983-35.482-54.14-35.482-88.452 0-70.692 57.308-128 128-128 34.312 0 65.469 13.502 88.452 35.481-92.011 16.392-164.58 88.959-180.97 180.971zM416 416h32v-32h-32zM384 480c-23.014 0-44.606-6.078-63.268-16.71 7.994-92.704 81.854-166.564 174.558-174.558 10.632 18.661 16.71 40.254 16.71 63.268 0 70.692-57.307 128-128 128zM480 384h-32v-32h32v-32h-32v32h-32v32h-32v32h-32v32h32v-32h32v32h32v-32h32v-32z" />
<glyph unicode="&#xe070;" d="M384 416c-49.179 0-94.030-18.498-128-48.905-33.969 30.407-78.821 48.905-128 48.905s-94.031-18.498-128-48.904v-286.172c0.342-0.306 0.676-0.62 1.020-0.924 8.209-7.244 17.040-13.798 26.406-19.569 9.43 7.631 19.739 14.216 30.761 19.569 21.098 10.248 44.783 16 69.813 16s48.716-5.752 69.813-16c11.021-5.354 21.331-11.938 30.761-19.569 1.842-1.491 3.65-3.022 5.424-4.592 8.108-7.178 15.488-15.159 22.002-23.83 6.515 8.671 13.894 16.652 22.002 23.83 1.773 1.569 3.581 3.101 5.424 4.592 9.43 7.631 19.739 14.216 30.761 19.569 21.098 10.248 44.783 16 69.813 16s48.716-5.752 69.813-16c11.021-5.354 21.331-11.938 30.761-19.569 9.366 5.771 18.196 12.325 26.405 19.569 0.344 0.304 0.679 0.618 1.021 0.924v286.172c-33.969 30.406-78.821 48.904-128 48.904zM128 128c-34.976 0-67.758-9.365-96-25.705v249.712c26.741 20.088 59.98 31.993 96 31.993 36.025 0 69.258-11.919 96-32.013v-249.692c-28.242 16.34-61.024 25.705-96 25.705zM384 128c-34.976 0-67.758-9.365-96-25.705v249.692c26.742 20.094 59.976 32.013 96 32.013 36.021 0 69.259-11.906 96-31.994v-249.712c-28.242 16.341-61.024 25.706-96 25.706z" />
<glyph unicode="&#xe071;" d="M448 416v-416h-336c-26.511 0-48 21.49-48 48s21.489 48 48 48h304v384h-320c-35.199 0-64-28.8-64-64v-384c0-35.2 28.801-64 64-64h384v448h-32zM128 64h288v-32h-288z" />
<glyph unicode="&#xe072;" d="M288.117 335.365l121.356 40.716 101.792-303.392-121.356-40.716zM0 32h128v352h-128v-352zM32 320h64v-32h-64v32zM160 32h128v352h-128v-352zM192 320h64v-32h-64v32z" />
<glyph unicode="&#xe073;" d="M176 400c0 44.183 35.817 80 80 80s80-35.817 80-80c0-44.183-35.817-80-80-80s-80 35.817-80 80zM504.988 115.99l-128 160c-6.315 7.894-15.606 11.997-24.984 12.004l-0.004 0.006-192.004-0.007c-9.378-0.007-18.669-4.11-24.984-12.002l-128-160c-8.402-10.502-9.34-25.138-2.348-36.627 5.881-9.663 16.314-15.365 27.329-15.365 2.082 0 4.186 0.204 6.282 0.623l89.725 17.944v-114.566h256v114.566l89.725-17.945c2.097-0.419 4.199-0.623 6.281-0.623 11.015 0 21.449 5.703 27.329 15.365 6.993 11.489 6.055 26.125-2.347 36.627zM352 154.233l-25.725 5.146c-17.325 3.468-34.188-7.772-37.654-25.104-3.466-17.33 7.773-34.188 25.104-37.654l38.275-7.655v-24.966l-96-32-96 32v24.966l38.276 7.655c17.33 3.466 28.569 20.324 25.103 37.654-3.466 17.331-20.326 28.564-37.654 25.104l-25.725-5.146v69.767l96-32 96 32v-69.767z" />
<glyph unicode="&#xe074;" d="M272 480l-272-128h544zM128.5 288v32h-96v-32h32v-192h-32v-32h96v32h-32v192zM256.5 288v32h-96v-32h32v-192h-32v-32h96v32h-32v192zM384.5 288v32h-96v-32h32v-192h-32v-32h96v32h-32v192zM512.5 288v32h-96v-32h32v-192h-32v-32h96v32h-32v192zM32.5 32l-32-64h543.5l-32 64z" horiz-adv-x="544" />
<glyph unicode="&#xe075;" d="M256 480l-256-160h512l-256 160zM400 288l16-32v-192h64v192l16 32h-96zM272 288l16-32v-192h64v192l16 32h-96zM144 288l16-32v-192h64v192l16 32h-96zM16 288l16-32v-192h64v192l16 32h-96zM16 32l-16-64h512l-16 64h-480zM288 384c0-17.673-14.327-32-32-32s-32 14.327-32 32 14.327 32 32 32c17.673 0 32-14.327 32-32z" />
<glyph unicode="&#xe076;" d="M96 186.334v-74.334c0-32 71.634-80 160-80s160 48 160 80v74.334l-160-80-160 80zM256 416l-256-128 256-128 207.714 103.857-15.714-135.857h32v144l32 16-256 128zM272 280.8c-12.813 0-23.2 10.387-23.2 23.2s10.387 23.2 23.2 23.2 23.2-10.387 23.2-23.2c0-12.813-10.386-23.2-23.2-23.2z" />
<glyph unicode="&#xe077;" d="M432 480h-384c-26.4 0-48-21.6-48-48v-416c0-26.4 21.6-48 48-48h384c26.4 0 48 21.6 48 48v416c0 26.4-21.6 48-48 48zM416 32h-352v384h352v-384zM128 256h224v-32h-224zM128 192h224v-32h-224zM128 128h224v-32h-224zM128 320h224v-32h-224z" />
<glyph unicode="&#xe078;" d="M432 480h-384c-26.4 0-48-21.6-48-48v-416c0-26.4 21.6-48 48-48h384c26.4 0 48 21.6 48 48v416c0 26.4-21.6 48-48 48zM416 32h-352v384h352v-384zM128 192h224v-32h-224zM128 128h224v-32h-224zM160 336c0 26.51 21.49 48 48 48s48-21.49 48-48c0-26.51-21.49-48-48-48s-48 21.49-48 48zM240 288h-64c-26.4 0-48-14.4-48-32v-32h160v32c0 17.6-21.6 32-48 32z" />
<glyph unicode="&#xe079;" d="M446.059 385.941l-60.117 60.118c-18.669 18.668-55.542 33.941-81.942 33.941h-224c-26.4 0-48-21.6-48-48v-416c0-26.4 21.6-48 48-48h352c26.4 0 48 21.6 48 48v288c0 26.4-15.273 63.273-33.941 81.941zM416 32h-320v384h208c2.479 0 8.507-1.034 16-3.781v-92.219h92.22c2.746-7.493 3.78-13.521 3.78-16v-272z" />
<glyph unicode="&#xe07a;" d="M446.059 385.941l-60.117 60.118c-18.669 18.668-55.542 33.941-81.942 33.941h-224c-26.4 0-48-21.6-48-48v-416c0-26.4 21.6-48 48-48h352c26.4 0 48 21.6 48 48v288c0 26.4-15.273 63.273-33.941 81.941zM320 412.219c1.098-0.402 2.226-0.84 3.379-1.318 9.030-3.741 15.299-8.088 17.308-10.097l60.118-60.119c2.009-2.009 6.356-8.277 10.097-17.307 0.478-1.153 0.916-2.281 1.318-3.378h-92.22v92.219zM416 32h-320v384h192v-128h128v-256z" />
<glyph unicode="&#xe07b;" d="M446.059 385.941l-60.117 60.118c-18.669 18.668-55.542 33.941-81.942 33.941h-224c-26.4 0-48-21.6-48-48v-416c0-26.4 21.6-48 48-48h352c26.4 0 48 21.6 48 48v288c0 26.4-15.273 63.273-33.941 81.941zM320 412.219c1.098-0.402 2.226-0.84 3.379-1.318 9.030-3.741 15.299-8.088 17.308-10.097l60.118-60.119c2.009-2.009 6.356-8.277 10.097-17.307 0.478-1.153 0.916-2.281 1.318-3.378h-92.22v92.219zM416 32h-320v384h192v-128h128v-256zM128 224h256v-32h-256zM128 160h256v-32h-256zM128 96h256v-32h-256z" />
<glyph unicode="&#xe07c;" d="M451.716 380.285c13.746-13.746 25.277-39.336 27.776-60.285h-159.492v159.492c20.949-2.499 46.538-14.030 60.284-27.776l71.432-71.431zM288 288h192v-280c0-22-18-40-40-40h-368c-22 0-40 18-40 40v432c0 22 18 40 40 40h216v-192z" />
<glyph unicode="&#xe07d;" d="M451.716 380.285c13.746-13.746 25.277-39.336 27.776-60.285h-159.492v159.492c20.949-2.499 46.538-14.030 60.284-27.776l71.432-71.431zM288 288v192h-216c-22 0-40-18-40-40v-432c0-22 18-40 40-40h368c22 0 40 18 40 40v280h-192zM416 32h-320v32h320v-32zM416 96h-320v32h320v-32zM416 160h-320v32h320v-32z" />
<glyph unicode="&#xe07e;" d="M483.717 284.285c13.746-13.746 25.277-39.336 27.775-60.285h-159.492v159.492c20.949-2.499 46.539-14.030 60.285-27.776l71.432-71.431zM320 192h192v-184c0-22-18-40-40-40h-304c-22 0-40 18-40 40v336c0 22 18 40 40 40h152v-192zM96 416v-352h-58c-20.9 0-38 17.1-38 38v340c0 20.9 17.1 38 38 38h308c20.9 0 38-17.1 38-38v-26h-288z" />
<glyph unicode="&#xe07f;" d="M451.716 380.285c13.746-13.746 25.277-39.336 27.776-60.285h-159.492v159.492c20.949-2.499 46.538-14.030 60.284-27.776l71.432-71.431zM288 288v192h-216c-22 0-40-18-40-40v-432c0-22 18-40 40-40h368c22 0 40 18 40 40v280h-192zM352 96h-64v-64h-64v64h-64v64h64v64h64v-64h64v-64z" />
<glyph unicode="&#xe080;" d="M451.716 380.285c13.746-13.746 25.277-39.336 27.776-60.285h-159.492v159.492c20.949-2.499 46.538-14.030 60.284-27.776l71.432-71.431zM288 288v192h-216c-22 0-40-18-40-40v-432c0-22 18-40 40-40h368c22 0 40 18 40 40v280h-192zM352 96h-192v64h192v-64z" />
<glyph unicode="&#xe081;" d="M419.716 380.285c13.746-13.746 25.277-39.336 27.776-60.285h-159.492v159.492c20.949-2.499 46.538-14.030 60.284-27.776l71.432-71.431zM256 288v192h-184c-22 0-40-18-40-40v-432c0-22 18-40 40-40h336c22 0 40 18 40 40v280h-192zM240 0l-128 128h80v96h96v-96h80l-128-128z" />
<glyph unicode="&#xe082;" d="M419.716 380.285c13.746-13.746 25.277-39.336 27.776-60.285h-159.492v159.492c20.949-2.499 46.538-14.030 60.284-27.776l71.432-71.431zM256 288v192h-184c-22 0-40-18-40-40v-432c0-22 18-40 40-40h336c22 0 40 18 40 40v280h-192zM288 96v-96h-96v96h-80l128 128 128-128h-80z" />
<glyph unicode="&#xe083;" d="M451.716 380.285c13.746-13.746 25.277-39.336 27.776-60.285h-159.492v159.492c20.949-2.499 46.538-14.030 60.284-27.776l71.432-71.431zM288 288v192h-216c-22 0-40-18-40-40v-432c0-22 18-40 40-40h368c22 0 40 18 40 40v280h-192zM215 20.745l-102.627 118.627 29.254 29.255 73.373-57.372 137.372 121.372 29.256-29.254-166.628-182.628z" />
<glyph unicode="&#xe084;" d="M451.716 380.285c13.746-13.746 25.277-39.336 27.776-60.285h-159.492v159.492c20.949-2.499 46.538-14.030 60.284-27.776l71.432-71.431zM288 288v192h-216c-22 0-40-18-40-40v-432c0-22 18-40 40-40h368c22 0 40 18 40 40v280h-192zM352 190.059l-62.059-62.059 62.059-62.059v-33.941h-33.941l-62.059 62.059-62.059-62.059h-33.941v33.941l62.059 62.059-62.059 62.059v33.941h33.941l62.059-62.059 62.059 62.059h33.941v-33.941z" />
<glyph unicode="&#xe085;" d="M352 480h-320v-512h448v384l-128 128zM448 0h-384v448h288v-96h96v-352z" />
<glyph unicode="&#xe086;" d="M352 480h-320v-512h448v384l-128 128zM448 0h-384v448h288v-96h96v-352zM128 96h256v-32h-256zM128 160h256v-32h-256zM128 224h256v-32h-256z" />
<glyph unicode="&#xe087;" d="M448 96v64h-64v-64h-64v-64h64v-64h64v64h64v64zM32 448h288v-96h96v-160h32v160l-128 128h-320v-512h288v32h-256z" />
<glyph unicode="&#xe088;" d="M320 96h192v-64h-192zM32 448h288v-96h96v-160h32v160l-128 128h-320v-512h288v32h-256z" />
<glyph unicode="&#xe089;" d="M288 256h-96v-160h-80l128-128 128 128h-80zM320 480h-288v-192l16-320 16 320v160h256v-96h96v-64l16-320 16 320v64z" />
<glyph unicode="&#xe08a;" d="M192-32h96v160h80l-128 128-128-128h80v-160zM320 480h-288v-192l16-320 16 320v160h256v-96h96v-64l16-320 16 320v64l-128 128z" />
<glyph unicode="&#xe08b;" d="M352-32l-96 112 40.75 40.75 55.25-55.625 128 126.875 32-32zM32 448h288v-96h96v-160h32v160l-128 128h-320v-512h288v32h-256v448z" />
<glyph unicode="&#xe08c;" d="M32 448h288v-96h96v-160h32v160l-128 128h-320v-512h288v32h-256v448zM461.256 64l50.744 50.744v45.256h-45.256l-50.744-50.744-50.744 50.744h-45.256v-45.256l50.744-50.744-50.744-50.744v-45.256h45.256l50.744 50.744 50.744-50.744h45.256v45.256z" />
<glyph unicode="&#xe08d;" d="M451.716 380.285l-71.432 71.431c-15.556 15.556-46.284 28.284-68.284 28.284h-240c-22 0-40-18-40-40v-432c0-22 18-40 40-40h368c22 0 40 18 40 40v304c0 22-12.728 52.729-28.284 68.285zM429.089 357.657c1.565-1.565 3.125-3.487 4.64-5.657h-81.729v81.728c2.17-1.515 4.092-3.075 5.657-4.64l71.432-71.431zM448 8c0-4.336-3.664-8-8-8h-368c-4.336 0-8 3.664-8 8v432c0 4.336 3.664 8 8 8h240c2.416 0 5.127-0.305 8-0.852v-127.148h127.148c0.547-2.873 0.852-5.583 0.852-8v-304z" />
<glyph unicode="&#xe08e;" d="M416 352h-96v32l-96 96h-224v-384h192v-128h320v288l-96 96zM416 306.745l50.745-50.745h-50.745v50.745zM224 434.745l50.745-50.745h-50.745v50.745zM32 448h160v-96h96v-224h-256v320zM480 0h-256v96h96v224h64v-96h96v-224z" />
<glyph unicode="&#xe08f;" d="M432 416h-32v-32h16v-256h-128v-128h-192v384h16v32h-32c-8.801 0-16-7.2-16-16v-416c0-8.8 7.199-16 16-16h252l116 116v316c0 8.8-7.2 16-16 16zM320 0v96h96l-96-96zM384 416h-64v32c0 17.6-14.4 32-32 32h-64c-17.602 0-32-14.4-32-32v-32h-64v-64h256v64zM288 416h-64v31.943c0.017 0.019 0.036 0.039 0.057 0.057h63.884c0.021-0.018 0.041-0.038 0.059-0.057v-31.943z" />
<glyph unicode="&#xe090;" d="M432 416c8.8 0 16-7.2 16-16v-304l-128-128h-240c-8.801 0-16 7.2-16 16v416c0 8.8 7.199 16 16 16h32v-32h-16v-384h192v128h128v256h-16v32h32zM384 416h-64v32c0 17.6-14.4 32-32 32h-64c-17.602 0-32-14.4-32-32v-32h-64v-64h256v64zM288 416h-64v31.943c0.017 0.019 0.036 0.039 0.057 0.057h63.884c0.021-0.018 0.041-0.038 0.059-0.057v-31.943z" />
<glyph unicode="&#xe091;" d="M320 352v128h-224l-96-96v-288h192v-128h320v384h-192zM96 434.745v-50.745h-50.745l50.745 50.745zM32 128v224h96v96h160v-96l-96-96v-128h-160zM288 306.745v-50.745h-50.745l50.745 50.745zM480 0h-256v224h96v96h160v-320z" />
<glyph unicode="&#xe092;" d="M352 416h-64v32c0 17.6-14.4 32-32 32h-64c-17.602 0-32-14.4-32-32v-32h-64v-64h256v64zM256 416h-64v31.943c0.017 0.019 0.036 0.039 0.057 0.057h63.884c0.021-0.018 0.041-0.038 0.059-0.057v-31.943zM416 320v80c0 8.8-7.2 16-16 16h-32v-32h16v-64h-192v-224h-128v288h16v32h-32c-8.801 0-16-7.2-16-16v-320c0-8.8 7.199-16 16-16h144v-96h224l96 96v256h-96zM416 13.255v50.745h50.745l-50.745-50.745zM480 96h-96v-96h-160v288h256v-192z" />
<glyph unicode="&#xe093;" d="M416 320v80c0 8.8-7.2 16-16 16h-112v32c0 17.6-14.4 32-32 32h-64c-17.602 0-32-14.4-32-32v-32h-112c-8.801 0-16-7.2-16-16v-320c0-8.8 7.199-16 16-16h144v-96h224l96 96v256h-96zM192 447.943c0.017 0.019 0.036 0.039 0.057 0.057h63.884c0.021-0.018 0.041-0.038 0.059-0.057v-31.943h-64v31.943zM96 352v32h256v-32h-256zM416 13.255v50.745h50.745l-50.745-50.745zM480 96h-96v-96h-160v288h256v-192z" />
<glyph unicode="&#xe094;" d="M352 416h-64v32c0 17.6-14.4 32-32 32h-64c-17.602 0-32-14.4-32-32v-32h-64v-64h256v64zM256 416h-64v31.943c0.017 0.019 0.036 0.039 0.057 0.057h63.884c0.021-0.018 0.041-0.038 0.059-0.057v-31.943zM416 320v80c0 8.8-7.2 16-16 16h-32v-32h16v-64h-96l-96-96v-128h-128v288h16v32h-32c-8.801 0-16-7.2-16-16v-320c0-8.8 7.199-16 16-16h144v-96h320v352h-96zM288 274.745v-50.745h-50.745l50.745 50.745zM480 0h-256v192h96v96h160v-288z" />
<glyph unicode="&#xe095;" d="M440 352h-24v24c0 22.056-17.944 40-40 40h-24v24c0 22.056-17.943 40-40 40h-240c-22.056 0-40-17.944-40-40v-304c0-22.057 17.944-40 40-40h24v-24c0-22.057 17.944-40 40-40h24v-24c0-22.056 17.944-40 40-40h240c22.056 0 40 17.944 40 40v304c0 22.056-17.944 40-40 40zM72.001 128c-4.4 0-8 3.6-8 8v304c0 4.4 3.6 8 8 8h240c4.4 0 8-3.6 8-8v-24h-184.001c-22.056 0-40-17.944-40-40v-248h-23.999zM136 64c-4.4 0-8 3.6-8 8v304c0 4.4 3.6 8 8 8h240c4.4 0 8-3.6 8-8v-24h-184c-22.056 0-40-17.944-40-40v-248h-24zM448 8c0-4.4-3.6-8-8-8h-240c-4.4 0-8 3.6-8 8v304c0 4.4 3.6 8 8 8h240c4.4 0 8-3.6 8-8v-304z" />
<glyph unicode="&#xe096;" d="M512 320l-256 128-256-128 256-128 256 128zM256 405.515l171.029-85.515-171.029-85.515-171.029 85.515 171.029 85.515zM460.722 249.639l51.278-25.639-256-128-256 128 51.278 25.639 204.722-102.361zM460.722 153.639l51.278-25.639-256-128-256 128 51.278 25.639 204.722-102.361z" />
<glyph unicode="&#xe097;" d="M256 192l-256 128 256 128 256-128zM460.722 249.639l51.278-25.639-256-128-256 128 51.278 25.639 204.722-102.361zM460.722 153.639l51.278-25.639-256-128-256 128 51.278 25.639 204.722-102.361z" />
<glyph unicode="&#xe098;" d="M0 320h512l-32-320h-448l-32 320zM464 384l16-32h-448l32 64h176l16-32h208z" />
<glyph unicode="&#xe099;" d="M480 352h-448l32 64h176l16-32h208zM0 320l32-320h448l32 320h-512zM256 16l-144 144h112v95.508h64v-95.508h112l-144-144z" />
<glyph unicode="&#xe09a;" d="M480 352h-448l32 64h176l16-32h208zM0 320l32-320h448l32 320h-512zM288 128v-95.508h-64v95.508h-112l144 144 144-144h-112z" />
<glyph unicode="&#xe09b;" d="M480 352h-448l32 64h176l16-32h208zM250 80c0-29.392 8.504-56.831 23.171-80h-241.171l-32 320h512l-12.763-127.624c-26.465 23.398-61.218 37.624-99.237 37.624-82.71 0-150-67.29-150-150zM400 192c-61.855 0-112-50.145-112-112s50.145-112 112-112 112 50.145 112 112-50.145 112-112 112zM416 64v-64h-32v64h-64v32h64v64h32v-64h64v-32h-64z" />
<glyph unicode="&#xe09c;" d="M480 352h-448l32 64h176l16-32h208zM0 320l32-320h448l32 320h-512zM352 128h-64v-64h-64v64h-64v64h64v64h64v-64h64v-64z" />
<glyph unicode="&#xe09d;" d="M480 352h-448l32 64h176l16-32h208zM250 80c0-29.392 8.504-56.831 23.171-80h-241.171l-32 320h512l-12.763-127.624c-26.465 23.398-61.218 37.624-99.237 37.624-82.71 0-150-67.29-150-150zM400 192c-61.855 0-112-50.145-112-112s50.145-112 112-112 112 50.145 112 112-50.145 112-112 112zM320 64v32h160v-32h-160z" />
<glyph unicode="&#xe09e;" d="M480 352h-448l32 64h176l16-32h208zM0 320l32-320h448l32 320h-512zM352 128h-192v64h192v-64z" />
<glyph unicode="&#xe09f;" d="M480 352h-448l32 64h176l16-32h208zM0 320l32-320h448l32 320h-512zM215 52.745l-102.627 118.627 29.254 29.255 73.373-57.372 137.372 121.372 29.256-29.254-166.628-182.628z" />
<glyph unicode="&#xe0a0;" d="M480 352h-448l32 64h176l16-32h208zM0 320l32-320h448l32 320h-512zM352 222.059l-62.059-62.059 62.059-62.059v-33.941h-33.941l-62.059 62.059-62.059-62.059h-33.941v33.941l62.059 62.059-62.059 62.059v33.941h33.941l62.059-62.059 62.059 62.059h33.941v-33.941z" />
<glyph unicode="&#xe0a1;" d="M224 416l64-64h224v-352h-512v416z" />
<glyph unicode="&#xe0a2;" d="M416 0l96 256h-416l-96-256zM64 288l-64-288v416h144l64-64h208v-64z" />
<glyph unicode="&#xe0a3;" d="M288 352l-64 64h-224v-416h512v352h-224zM274.745 320h205.255v-4h-448v8h238.745l4-4zM32 32v4h448v-4h-448zM32 44v8h448v-8h-448zM32 60v8h448v-8h-448zM32 76v8h448v-8h-448zM32 92v8h448v-8h-448zM32 108v8h448v-8h-448zM32 124v8h448v-8h-448zM32 140v8h448v-8h-448zM32 156v8h448v-8h-448zM32 172v8h448v-8h-448zM32 188v8h448v-8h-448zM32 204v8h448v-8h-448zM32 220v8h448v-8h-448zM32 236v8h448v-8h-448zM32 252v8h448v-8h-448zM32 268v8h448v-8h-448zM32 284v8h448v-8h-448zM32 300v8h448v-8h-448zM210.745 384l4-4h-182.745v4h178.745zM222.745 372l8-8h-198.745v8h190.745zM238.745 356l8-8h-214.745v8h206.745zM254.746 340l8-8h-230.746v8h222.746z" />
<glyph unicode="&#xe0a4;" d="M210.745 384l64-64h205.255v-288h-448v352h178.745zM224 416h-224v-416h512v352h-224l-64 64z" />
<glyph unicode="&#xe0a5;" d="M288 352l-64 64h-224v-416h512v352h-224zM352 128h-64v-64h-64v64h-64v64h64v64h64v-64h64v-64z" />
<glyph unicode="&#xe0a6;" d="M288 352l-64 64h-224v-416h512v352h-224zM352 128h-192v64h192v-64z" />
<glyph unicode="&#xe0a7;" d="M288 352l-64 64h-224v-416h512v352h-224zM480 32h-448v352h178.745l64-64h205.255v-288zM288 256h-64v-64h-64v-64h64v-64h64v64h64v64h-64z" />
<glyph unicode="&#xe0a8;" d="M288 352l-64 64h-224v-416h512v352h-224zM480 32h-448v352h178.745l64-64h205.255v-288zM160 192h192v-64h-192z" />
<glyph unicode="&#xe0a9;" d="M288 352l-64 64h-224v-416h512v352h-224zM256 32l-128 128h96v128h64v-128h96l-128-128z" />
<glyph unicode="&#xe0aa;" d="M288 352l-64 64h-224v-416h224v128h-96l128 128 128-128h-96v-128h224v352z" />
<glyph unicode="&#xe0ab;" d="M288 352l-64 64h-224v-416h512v352h-224zM480 32h-448v352h178.745l64-64h205.255v-288zM288 160v96h-64v-96h-96l128-128 128 128z" />
<glyph unicode="&#xe0ac;" d="M288 352l-64 64h-224v-416h512v352h-224zM480 32h-192v96h96l-128 128-128-128h96v-96h-192v352h178.745l64-64h205.255v-288z" />
<glyph unicode="&#xe0ad;" d="M492.25 352h-472.5c-13.2 0-21.882-10.59-19.293-23.534l58.836-272.932c2.589-12.944 15.507-23.534 28.707-23.534h336c13.2 0 26.118 10.59 28.707 23.534l58.836 272.932c2.589 12.944-6.093 23.534-19.293 23.534zM448 392c0 13.255-10.745 24-24 24h-216l-16 32h-104c-13.255 0-24-10.745-24-24v-56h384v24z" />
<glyph unicode="&#xe0ae;" d="M492.25 288c13.2 0 21.882-10.59 19.293-23.534l-58.836-208.932c-2.589-12.944-15.507-23.534-28.707-23.534h-336c-13.2 0-26.118 10.59-28.707 23.534l-58.836 208.932c-2.589 12.944 6.093 23.534 19.293 23.534h472.5zM448 392v-72h-384v104c0 13.255 10.745 24 24 24h104l16-32h216c13.255 0 24-10.745 24-24z" />
<glyph unicode="&#xe0af;" d="M492.25 352h-44.25v40c0 13.255-10.745 24-24 24h-216l-16 32h-104c-13.255 0-24-10.745-24-24v-72h-44.25c-13.2 0-21.882-10.59-19.293-23.534l58.836-272.932c2.589-12.944 15.507-23.534 28.707-23.534h336c13.2 0 26.118 10.59 28.707 23.534l58.836 272.932c2.589 12.944-6.093 23.534-19.293 23.534zM96 416h76.223l16-32h227.777v-32h-320v64zM421.797 64h-331.594l-55.186 256h441.966l-55.186-256z" />
<glyph unicode="&#xe0b0;" d="M492.25 288h-44.25v104c0 13.255-10.745 24-24 24h-216l-16 32h-104c-13.255 0-24-10.745-24-24v-136h-44.25c-13.2 0-21.882-10.59-19.293-23.534l58.836-208.932c2.589-12.944 15.507-23.534 28.707-23.534h336c13.2 0 26.118 10.59 28.707 23.534l58.836 208.932c2.589 12.944-6.093 23.534-19.293 23.534zM96 416h76.223l16-32h227.777v-96h-320v128zM421.797 64h-331.594l-55.186 192h441.966l-55.186-192z" />
<glyph unicode="&#xe0b1;" d="M32 480v-512h448v512h-448zM448 0h-384v448h384v-448zM96 384h160v-32h-160zM96 320h160v-32h-160zM96 256h160v-32h-160zM96 192.32h160v-32h-160zM96 128h160v-32h-160zM96 64h320v-32h-320zM384 256v-160l-32 48-32-48v160zM416 370.746l-18.745-18.746 18.745-18.746v-13.254h-32v-32h-13.255l-18.745 18.745-18.745-18.745h-13.255v32h-32v13.254l18.745 18.746-18.745 18.746v13.254h32v32h13.255l18.745-18.745 18.745 18.745h13.255v-32h32z" />
<glyph unicode="&#xe0b2;" d="M255.645 480c-70.134 0-131.857-25.955-179.555-74.347-49.086-49.8-75.735-114.324-75.735-181.661 0-68.027 25.939-131.147 75.041-180.249 49.094-49.094 112.916-75.743 180.249-75.743s132.56 26.649 183.058 76.445c47.697 46.995 72.941 109.413 72.941 179.547 0 69.439-25.244 132.563-73.643 180.959-49.093 49.094-112.222 75.049-182.356 75.049zM256.347 433.707c57.512 0 108.711-21.742 148.694-61.72 39.271-39.28 60.311-91.178 60.311-147.995 0-57.511-20.338-108.001-59.609-146.587-41.385-40.676-94.684-62.418-149.395-62.418-55.404 0-107.314 21.742-147.289 61.716-39.974 39.981-62.426 92.586-62.426 147.289 0 55.413 22.452 108.013 62.426 148.697 39.279 39.974 89.777 61.018 147.288 61.018zM253.042 266.53c-14.453 26.373-39.131 36.865-67.768 36.865-41.686 0-74.867-29.489-74.867-79.403 0-50.759 31.193-79.396 76.287-79.396 28.922 0 53.599 15.881 67.207 39.981l-31.762 16.165c-7.092-17.017-17.868-22.113-31.477-22.113-23.533 0-34.311 19.564-34.311 45.362 0 25.813 9.073 45.378 34.311 45.378 6.808 0 20.416-3.692 28.361-20.701l34.019 17.862zM400.725 266.53c-14.461 26.373-39.129 36.865-67.766 36.865-41.688 0-74.867-29.489-74.867-79.403 0-50.759 31.193-79.396 76.287-79.396 28.92 0 53.59 15.881 67.199 39.981l-31.762 16.165c-7.084-17.017-17.861-22.113-31.479-22.113-23.525 0-34.309 19.564-34.309 45.362 0 25.813 9.080 45.378 34.309 45.378 6.809 0 20.418-3.692 28.369-20.701l34.019 17.862z" />
<glyph unicode="&#xe0b3;" d="M500.32 236.284l-119.576 119.432c-15.576 15.556-46.341 28.284-68.367 28.284h-272.329c-22.026 0-40.048-18-40.048-40v-272c0-22 18.022-40 40.048-40h272.329c22.026 0 52.791 12.728 68.367 28.284l119.576 119.432c15.576 15.556 15.576 41.012 0 56.568zM368 160c-26.51 0-48 21.49-48 48s21.49 48 48 48 48-21.49 48-48-21.49-48-48-48z" />
<glyph unicode="&#xe0b4;" d="M312.279 320h-248.279v-224h248.28c5.796 0.262 19.017 5.729 23.308 9.638l102.486 102.362-102.485 102.361c-4.292 3.91-17.513 9.377-23.31 9.639zM312.377 384v0c22.026 0 52.791-12.728 68.367-28.284l119.576-119.432c15.575-15.556 15.575-41.011 0-56.568l-119.576-119.432c-15.576-15.556-46.341-28.284-68.367-28.284h-272.329c-22.026 0-40.048 18-40.048 40v272c0 22 18.022 40 40.048 40h272.329zM256 208c0 26.51 21.49 48 48 48s48-21.49 48-48c0-26.51-21.49-48-48-48s-48 21.49-48 48z" />
<glyph unicode="&#xe0b5;" d="M312.377 352h-272.329c-4.362 0-8.048-3.664-8.048-8v-272c0-4.336 3.685-8 8.048-8h272.329c13.527 0 36.19 9.374 45.754 18.926l119.576 119.431c1.996 1.995 2.295 4.392 2.295 5.643s-0.299 3.649-2.296 5.644l-119.575 119.431c-9.564 9.55-32.227 18.925-45.754 18.925zM312.377 384v0c22.026 0 52.791-12.728 68.367-28.284l119.576-119.432c15.575-15.556 15.575-41.011 0-56.568l-119.576-119.432c-15.576-15.556-46.341-28.284-68.367-28.284h-272.329c-22.026 0-40.048 18-40.048 40v272c0 22 18.022 40 40.048 40h272.329zM288 208c0 26.51 21.49 48 48 48s48-21.49 48-48c0-26.51-21.49-48-48-48s-48 21.49-48 48z" />
<glyph unicode="&#xe0b6;" d="M272 480l-272-272 240-240 272 272v240h-240zM400 320c-26.51 0-48 21.49-48 48s21.49 48 48 48 48-21.49 48-48-21.49-48-48-48z" />
<glyph unicode="&#xe0b7;" d="M463.906 480h-144.281c-26.453 0-63.398-15.303-82.102-34.007l-223.495-223.495c-18.704-18.704-18.704-49.312 0-68.016l172.455-172.453c18.704-18.705 49.311-18.705 68.015 0l223.495 223.494c18.704 18.705 34.007 55.651 34.007 82.102v144.281c0 26.452-21.643 48.094-48.094 48.094zM400 320c-26.51 0-48 21.49-48 48s21.49 48 48 48 48-21.49 48-48-21.49-48-48-48z" />
<glyph unicode="&#xe0b8;" d="M448 416h-149.49l-208-208 149.49-149.49 208 208v149.49zM512 480v0-240l-272-272-240 240 272 272h240zM320 336c0 26.51 21.49 48 48 48s48-21.49 48-48c0-26.51-21.49-48-48-48s-48 21.49-48 48z" />
<glyph unicode="&#xe0b9;" d="M447.875 415.874h-128.25c-2.848 0-10.369-1.361-19.418-5.109-9.047-3.748-15.326-8.103-17.34-10.116l-212.16-212.16 149.783-149.782 212.159 212.159c2.013 2.014 6.369 8.293 10.117 17.342 3.75 9.049 5.109 16.569 5.109 19.416v128.251zM463.906 480v0c26.451 0 48.094-21.643 48.094-48.094v-144.282c0-26.451-15.303-63.396-34.007-82.102l-223.495-223.494c-9.352-9.352-21.681-14.028-34.008-14.028s-24.655 4.675-34.007 14.028l-172.455 172.453c-18.704 18.704-18.704 49.312 0 68.016l223.495 223.495c18.704 18.704 55.649 34.008 82.102 34.008h144.281zM320 336c0 26.51 21.49 48 48 48s48-21.49 48-48c0-26.51-21.49-48-48-48s-48 21.49-48 48z" />
<glyph unicode="&#xe0ba;" d="M496 448h-112c-26.4 0-63.273-15.273-81.941-33.941l-188.118-188.118c-18.667-18.667-18.667-49.214 0-67.882l140.118-140.117c18.667-18.668 49.214-18.668 67.882 0l188.117 188.117c18.669 18.668 33.942 55.541 33.942 81.941v112c0 26.4-21.6 48-48 48zM432 288c-26.51 0-48 21.49-48 48s21.49 48 48 48 48-21.49 48-48-21.49-48-48-48zM43.313 180.687l171.189-171.189c-18.132-9.58-41.231-6.769-56.443 8.444l-140.118 140.117c-18.667 18.668-18.667 49.215 0 67.882l188.118 188.118c18.668 18.668 55.541 33.941 81.941 33.941l-244.687-244.686c-6.222-6.223-6.222-16.404 0-22.627z" horiz-adv-x="544" />
<glyph unicode="&#xe0bb;" d="M480 384h-96c-2.842 0-10.348-1.357-19.379-5.098s-15.299-8.089-17.309-10.098l-176.803-176.804 117.491-117.49 176.803 176.804c2.010 2.009 6.358 8.277 10.098 17.308 3.742 9.030 5.099 16.536 5.099 19.378v96zM496 448v0c26.4 0 48-21.6 48-48v-112c0-26.4-15.273-63.273-33.942-81.941l-188.117-188.117c-9.334-9.334-21.637-14.001-33.941-14.001s-24.608 4.667-33.941 14.001l-140.118 140.117c-18.667 18.668-18.667 49.215 0 67.882l188.118 188.118c18.668 18.668 55.541 33.941 81.941 33.941h112zM43.313 180.687l171.189-171.189c-18.132-9.58-41.231-6.769-56.443 8.444l-140.118 140.117c-18.667 18.668-18.667 49.215 0 67.882l188.118 188.118c18.668 18.668 55.541 33.941 81.941 33.941l-244.687-244.686c-6.222-6.223-6.222-16.404 0-22.627zM384 320c0 17.673 14.327 32 32 32s32-14.327 32-32c0-17.673-14.327-32-32-32s-32 14.327-32 32z" horiz-adv-x="544" />
<glyph unicode="&#xe0bc;" d="M192 224h32v-64h-32zM256 128h32v-64h-32zM400.443 336.971l-115.552 126.058c-8.557 9.334-25.457 16.971-37.558 16.971h-14.667c-12.1 0-29-7.637-37.556-16.971l-115.553-126.058c-8.557-9.334-15.557-27.771-15.557-40.971v-304c0-13.2 9.9-24 22-24h308c12.101 0 22 10.8 22 24v304c0 13.2-7 31.637-15.557 40.971zM320 224h-64v-64h64v-128h-64v-32h-32v32h-64v32h64v64h-64v128h64v32h32v-32h64v-32zM265 400c0-13.807-11.193-25-25-25s-25 11.193-25 25 11.193 25 25 25 25-11.193 25-25z" />
<glyph unicode="&#xe0bd;" d="M0 384h64v-320h-64zM96 384h32v-320h-32zM160 384h32v-320h-32zM256 384h32v-320h-32zM384 384h32v-320h-32zM480 384h32v-320h-32zM320 384h16v-320h-16zM224 384h16v-320h-16zM432 384h16v-320h-16z" />
<glyph unicode="&#xe0be;" d="M0 416h64v-320h-64zM96 416h32v-320h-32zM160 416h32v-320h-32zM256 416h32v-320h-32zM384 416h32v-320h-32zM480 416h32v-320h-32zM320 416h16v-320h-16zM224 416h16v-320h-16zM432 416h16v-320h-16zM0 64h32v-32h-32zM96 64h32v-32h-32zM160 64h32v-32h-32zM320 64h32v-32h-32zM480 64h32v-32h-32zM384 64h64v-32h-64zM224 64h64v-32h-64z" />
<glyph unicode="&#xe0bf;" d="M160 448h-128v-128h128v128zM192 480v0-192h-192v192h192zM64 416h64v-64h-64zM480 448h-128v-128h128v128zM512 480v0-192h-192v192h192zM384 416h64v-64h-64zM160 128h-128v-128h128v128zM192 160v0-192h-192v192h192zM64 96h64v-64h-64zM224 480h32v-32h-32zM256 448h32v-32h-32zM224 416h32v-32h-32zM256 384h32v-32h-32zM224 352h32v-32h-32zM256 320h32v-32h-32zM224 288h32v-32h-32zM224 224h32v-32h-32zM256 192h32v-32h-32zM224 160h32v-32h-32zM256 128h32v-32h-32zM224 96h32v-32h-32zM256 64h32v-32h-32zM224 32h32v-32h-32zM256 0h32v-32h-32zM480 224h32v-32h-32zM32 224h32v-32h-32zM64 256h32v-32h-32zM0 256h32v-32h-32zM128 256h32v-32h-32zM160 224h32v-32h-32zM192 256h32v-32h-32zM288 224h32v-32h-32zM320 256h32v-32h-32zM352 224h32v-32h-32zM384 256h32v-32h-32zM416 224h32v-32h-32zM448 256h32v-32h-32zM480 160h32v-32h-32zM288 160h32v-32h-32zM320 192h32v-32h-32zM352 160h32v-32h-32zM416 160h32v-32h-32zM448 192h32v-32h-32zM480 96h32v-32h-32zM288 96h32v-32h-32zM320 128h32v-32h-32zM384 128h32v-32h-32zM416 96h32v-32h-32zM448 128h32v-32h-32zM480 32h32v-32h-32zM320 64h32v-32h-32zM352 32h32v-32h-32zM384 64h32v-32h-32zM416 32h32v-32h-32zM320 0h32v-32h-32zM384 0h32v-32h-32zM448 0h32v-32h-32z" />
<glyph unicode="&#xe0c0;" d="M287.998 320l63.999-63.999-127.997-127.997-63.999 63.999zM500.763 331.248l-36.758 36.758-16.004-16.004c-8.189-8.19-19.505-13.255-32-13.255-24.994 0-45.257 20.261-45.257 45.255 0 12.501 5.070 23.819 13.267 32.009l15.994 15.993-36.759 36.758c-14.984 14.984-39.504 14.984-54.488 0l-297.52-297.519c-14.983-14.984-14.983-39.505 0-54.488l36.76-36.759 15.981 15.982c8.191 8.203 19.515 13.276 32.022 13.276 24.994 0 45.255-20.262 45.255-45.255 0-12.503-5.070-23.82-13.267-32.011l-15.992-15.993 36.758-36.759c14.983-14.983 39.504-14.983 54.488 0l297.52 297.52c14.982 14.988 14.982 39.508 0 54.492zM224.001 64.002l-128 128 192 192 128-128-192-192z" />
<glyph unicode="&#xe0c1;" d="M64 16c0 26.51 21.49 48 48 48s48-21.49 48-48c0-26.51-21.49-48-48-48s-48 21.49-48 48zM384 16c0 26.51 21.49 48 48 48s48-21.49 48-48c0-26.51-21.49-48-48-48s-48 21.49-48 48zM480 224v192h-416c0 35.346-28.653 64-64 64v-32c17.645 0 32-14.355 32-32l24.037-206.027c-14.647-11.729-24.037-29.75-24.037-49.973 0-35.347 28.654-64 64-64h384v32h-384c-17.673 0-32 14.327-32 32 0 0.11 0.007 0.218 0.008 0.328l415.992 63.672z" />
<glyph unicode="&#xe0c2;" d="M423.609 192c17.6 0 35.956 13.846 40.791 30.769l46.418 162.463c4.835 16.922-5.609 30.768-23.209 30.768h-327.609c0 35.346-28.654 64-64 64h-96v-64h96v-272c0-26.51 21.49-48 48-48h304c17.673 0 32 14.327 32 32s-14.327 32-32 32h-288v32h263.609zM160 352h289.403l-27.429-96h-261.974v96zM192 8c0-22-18-40-40-40h-16c-22 0-40 18-40 40v16c0 22 18 40 40 40h16c22 0 40-18 40-40v-16zM480 8c0-22-18-40-40-40h-16c-22 0-40 18-40 40v16c0 22 18 40 40 40h16c22 0 40-18 40-40v-16z" />
<glyph unicode="&#xe0c3;" d="M423.609 192c17.6 0 35.956 13.846 40.791 30.769l46.418 162.463c4.835 16.922-5.609 30.768-23.209 30.768h-327.609c0 35.346-28.654 64-64 64h-96v-64h96v-272c0-26.51 21.49-48 48-48h304c17.673 0 32 14.327 32 32s-14.327 32-32 32h-288v32h263.609zM160 256v4h263.117l-1.143-4h-261.974zM441.403 324l-2.286-8h-279.117v8h281.403zM160 332v8h285.975l-2.285-8h-283.69zM436.832 308l-2.286-8h-274.546v8h276.832zM432.261 292l-2.286-8h-269.975v8h272.261zM427.688 276l-2.285-8h-265.403v8h267.688zM449.403 352l-1.143-4h-288.26v4h289.403zM152 64c22 0 40-18 40-40v-16c0-22-18-40-40-40h-16c-22 0-40 18-40 40v16c0 22 18 40 40 40h16zM440 64c22 0 40-18 40-40v-16c0-22-18-40-40-40h-16c-22 0-40 18-40 40v16c0 22 18 40 40 40h16z" />
<glyph unicode="&#xe0c4;" d="M488.791 382.769c16.993-4.855 26.833-22.567 21.978-39.56l-64-224c-3.925-13.737-16.482-23.209-30.769-23.209h-272c-16.138 0-29.751 12.018-31.753 28.031l-28.496 227.969h-51.751c-17.673 0-32 14.327-32 32s14.327 32 32 32h80c16.138 0 29.751-12.017 31.753-28.031l28.496-227.969h219.613l57.369 200.791c4.855 16.993 22.568 26.832 39.56 21.978zM128 16c0 26.51 21.49 48 48 48s48-21.49 48-48c0-26.51-21.49-48-48-48s-48 21.49-48 48zM320 16c0 26.51 21.49 48 48 48s48-21.49 48-48c0-26.51-21.49-48-48-48s-48 21.49-48 48z" />
<glyph unicode="&#xe0c5;" d="M488.791 382.769c-16.992 4.854-34.705-4.985-39.56-21.978l-2.511-8.791h-298.471l-4.496 35.969c-2.002 16.014-15.615 28.031-31.753 28.031h-80c-17.673 0-32-14.327-32-32s14.327-32 32-32h51.751l28.496-227.969c2.002-16.013 15.615-28.031 31.753-28.031h272c14.287 0 26.844 9.472 30.769 23.209l64 224c4.855 16.993-4.985 34.705-21.978 39.56zM391.862 160h-219.613l-0.5 4h221.256l-1.143-4zM395.291 172h-224.542l-1 8h227.827l-2.285-8zM399.862 188h-231.113l-1 8h234.399l-2.286-8zM404.434 204h-237.685l-1 8h240.971l-2.286-8zM409.005 220h-244.256l-1 8h247.542l-2.286-8zM413.577 236h-250.828l-1 8h254.113l-2.285-8zM418.148 252h-257.399l-1 8h260.685l-2.286-8zM422.72 268h-263.971l-1 8h267.256l-2.285-8zM427.291 284h-270.542l-1 8h273.828l-2.286-8zM431.862 300h-277.113l-1 8h280.399l-2.286-8zM152.749 316l-0.5 4h285.327l-1.143-4h-283.684zM128 16c0 26.51 21.49 48 48 48s48-21.49 48-48c0-26.51-21.49-48-48-48s-48 21.49-48 48zM320 16c0 26.51 21.49 48 48 48s48-21.49 48-48c0-26.51-21.49-48-48-48s-48 21.49-48 48z" />
<glyph unicode="&#xe0c6;" d="M488.791 382.769c-16.992 4.854-34.705-4.985-39.56-21.978l-2.511-8.791h-298.471l-4.496 35.969c-2.002 16.014-15.615 28.031-31.753 28.031h-80c-17.673 0-32-14.327-32-32s14.327-32 32-32h51.751l28.496-227.969c2.002-16.013 15.615-28.031 31.753-28.031h272c14.287 0 26.844 9.472 30.769 23.209l64 224c4.855 16.993-4.985 34.705-21.978 39.56zM256 224v32h63.998v-32h-63.998zM319.998 192v-32h-63.998v32h63.998zM256 288v32h63.998v-32h-63.998zM152.249 320h71.751v-32h-67.751l-4 32zM160.249 256h63.751v-32h-59.751l-4 32zM168.249 192h55.751v-32h-51.751l-4 32zM391.862 160h-39.864v32h49.007l-9.143-32zM410.148 224h-58.15v32h67.293l-9.143-32zM428.434 288h-76.436v32h85.579l-9.143-32zM128 16c0 26.51 21.49 48 48 48s48-21.49 48-48c0-26.51-21.49-48-48-48s-48 21.49-48 48zM320 16c0 26.51 21.49 48 48 48s48-21.49 48-48c0-26.51-21.49-48-48-48s-48 21.49-48 48z" />
<glyph unicode="&#xe0c7;" d="M488.791 382.769c-16.992 4.854-34.705-4.985-39.56-21.978l-2.511-8.791h-298.471l-4.496 35.969c-2.002 16.014-15.615 28.031-31.753 28.031h-80c-17.673 0-32-14.327-32-32s14.327-32 32-32h51.751l28.496-227.969c2.002-16.013 15.615-28.031 31.753-28.031h272c14.287 0 26.844 9.472 30.769 23.209l64 224c4.855 16.993-4.985 34.705-21.978 39.56zM437.577 320l-9.144-32h-272.184l-4 32h285.328zM419.291 256l-9.143-32h-245.899l-4 32h259.042zM172.249 160l-4 32h232.756l-9.143-32h-219.613zM128 16c0 26.51 21.49 48 48 48s48-21.49 48-48c0-26.51-21.49-48-48-48s-48 21.49-48 48zM320 16c0 26.51 21.49 48 48 48s48-21.49 48-48c0-26.51-21.49-48-48-48s-48 21.49-48 48z" />
<glyph unicode="&#xe0c8;" d="M416 96h-272c-16.138 0-29.751 12.018-31.753 28.031l-28.496 227.969h-51.751c-17.673 0-32 14.327-32 32s14.327 32 32 32h80c16.138 0 29.751-12.017 31.753-28.031l28.496-227.969h219.613l57.369 200.791c4.854 16.993 22.567 26.832 39.56 21.978 16.993-4.855 26.833-22.567 21.978-39.56l-64-224c-3.925-13.737-16.482-23.209-30.769-23.209zM128 16c0 26.51 21.49 48 48 48s48-21.49 48-48c0-26.51-21.49-48-48-48s-48 21.49-48 48zM320 16c0 26.51 21.49 48 48 48s48-21.49 48-48c0-26.51-21.49-48-48-48s-48 21.49-48 48zM384 256h-64v-64h-64v64h-64v64h64v64h64v-64h64z" />
<glyph unicode="&#xe0c9;" d="M416 96h-272c-16.138 0-29.751 12.018-31.753 28.031l-28.496 227.969h-51.751c-17.673 0-32 14.327-32 32s14.327 32 32 32h80c16.138 0 29.751-12.017 31.753-28.031l28.496-227.969h219.613l57.369 200.791c4.854 16.993 22.567 26.832 39.56 21.978 16.993-4.855 26.833-22.567 21.978-39.56l-64-224c-3.925-13.737-16.482-23.209-30.769-23.209zM128 16c0 26.51 21.49 48 48 48s48-21.49 48-48c0-26.51-21.49-48-48-48s-48 21.49-48 48zM320 16c0 26.51 21.49 48 48 48s48-21.49 48-48c0-26.51-21.49-48-48-48s-48 21.49-48 48zM192 320h192v-64h-192z" />
<glyph unicode="&#xe0ca;" d="M488.791 382.769c16.993-4.855 26.833-22.567 21.978-39.56l-64-224c-3.925-13.737-16.482-23.209-30.769-23.209h-272c-16.138 0-29.751 12.018-31.753 28.031l-28.496 227.969h-51.751c-17.673 0-32 14.327-32 32s14.327 32 32 32h80c16.138 0 29.751-12.017 31.753-28.031l28.496-227.969h219.613l57.369 200.791c4.855 16.993 22.568 26.832 39.56 21.978zM128 16c0 26.51 21.49 48 48 48s48-21.49 48-48c0-26.51-21.49-48-48-48s-48 21.49-48 48zM320 16c0 26.51 21.49 48 48 48s48-21.49 48-48c0-26.51-21.49-48-48-48s-48 21.49-48 48zM182 320h74v96h64v-96h74l-106-114z" />
<glyph unicode="&#xe0cb;" d="M488.791 382.769c16.993-4.855 26.833-22.567 21.978-39.56l-64-224c-3.925-13.737-16.482-23.209-30.769-23.209h-272c-16.138 0-29.751 12.018-31.753 28.031l-28.496 227.969h-51.751c-17.673 0-32 14.327-32 32s14.327 32 32 32h80c16.138 0 29.751-12.017 31.753-28.031l28.496-227.969h219.613l57.369 200.791c4.855 16.993 22.568 26.832 39.56 21.978zM128 16c0 26.51 21.49 48 48 48s48-21.49 48-48c0-26.51-21.49-48-48-48s-48 21.49-48 48zM320 16c0 26.51 21.49 48 48 48s48-21.49 48-48c0-26.51-21.49-48-48-48s-48 21.49-48 48zM394 288h-74v-96h-64v96h-74l106 114z" />
<glyph unicode="&#xe0cc;" d="M416 96h-272c-16.138 0-29.751 12.018-31.753 28.031l-28.496 227.969h-51.751c-17.673 0-32 14.327-32 32s14.327 32 32 32h80c16.138 0 29.751-12.017 31.753-28.031l28.496-227.969h219.613l57.369 200.791c4.854 16.993 22.567 26.832 39.56 21.978 16.993-4.855 26.833-22.567 21.978-39.56l-64-224c-3.925-13.737-16.482-23.209-30.769-23.209zM128 16c0 26.51 21.49 48 48 48s48-21.49 48-48c0-26.51-21.49-48-48-48s-48 21.49-48 48zM320 16c0 26.51 21.49 48 48 48s48-21.49 48-48c0-26.51-21.49-48-48-48s-48 21.49-48 48zM429.312 402.918l-134.153-178.318-80.159 103.49 26.612 24.425 51.547-45.64 113.822 115.375z" />
<glyph unicode="&#xe0cd;" d="M488.791 382.769c16.993-4.855 26.833-22.567 21.978-39.56l-64-224c-3.925-13.737-16.482-23.209-30.769-23.209h-272c-16.138 0-29.751 12.018-31.753 28.031l-28.496 227.969h-51.751c-17.673 0-32 14.327-32 32s14.327 32 32 32h80c16.138 0 29.751-12.017 31.753-28.031l28.496-227.969h219.613l57.369 200.791c4.855 16.993 22.568 26.832 39.56 21.978zM128 16c0 26.51 21.49 48 48 48s48-21.49 48-48c0-26.51-21.49-48-48-48s-48 21.49-48 48zM320 16c0 26.51 21.49 48 48 48s48-21.49 48-48c0-26.51-21.49-48-48-48s-48 21.49-48 48zM402.628 250.628l-45.256-45.256-69.372 69.373-69.373-69.372-45.255 45.255 69.373 69.372-69.372 69.373 45.254 45.254 69.373-69.372 69.372 69.373 45.256-45.255-69.373-69.373 69.373-69.372z" />
<glyph unicode="&#xe0ce;" d="M406.494 288l-88.921 115.765c1.561 3.77 2.427 7.901 2.427 12.235 0 17.673-14.326 32-32 32s-32-14.327-32-32 14.327-32 32-32c1.421 0 2.816 0.102 4.188 0.282l73.956-96.282h-220.287l73.956 96.282c1.371-0.18 2.767-0.282 4.187-0.282 17.673 0 32 14.327 32 32s-14.327 32-32 32-32-14.327-32-32c0-4.334 0.866-8.465 2.427-12.234l-88.921-115.766h-105.506v-64h32l32-256h384l32 256h32v64h-105.506zM160 32h-64v64h64v-64zM160 160h-64v64h64v-64zM288 32h-64v64h64v-64zM288 160h-64v64h64v-64zM416 32h-64v64h64v-64zM416 160h-64v64h64v-64z" />
<glyph unicode="&#xe0cf;" d="M64-32h383.459c0 0 32.541 64 64 256h-511.459c32-192 64-256 64-256zM368 192h48v-192h-48v192zM277.333 192h48v-192h-48v192zM186.667 192h48v-192h-48v192zM96 192h48v-192h-48v192zM437.768 320l-89.868 112.334c2.606 4.631 4.1 9.973 4.1 15.666 0 17.673-14.327 32-32 32s-32-14.327-32-32 14.326-32 32-32c3.185 0 6.259 0.472 9.162 1.338l77.87-97.338h-302.064l77.871 97.338c2.903-0.866 5.976-1.338 9.161-1.338 17.673 0 32 14.327 32 32s-14.327 32-32 32-32-14.327-32-32c0-5.693 1.493-11.034 4.1-15.666l-89.868-112.334h-74.232v-64h512v64h-74.232z" />
<glyph unicode="&#xe0d0;" d="M352 384v16c0 44.183-35.817 80-80 80-18.011 0-34.629-5.955-48-15.999-13.371 10.044-29.989 15.999-48 15.999-44.183 0-80-35.817-80-80v-54.4l-64-9.6v-336h64l32-32 320 48v336l-96 32zM96 32h-32v276.442l32 4.8v-281.242zM272 448c26.468 0 48-21.533 48-48v-20.8l-64-9.6v30.4c0 14.531-3.894 28.145-10.666 39.89 7.633 5.118 16.806 8.11 26.666 8.11zM128 400c0 26.467 21.533 48 48 48 9.86 0 19.033-2.992 26.666-8.111-6.772-11.744-10.666-25.358-10.666-39.889v-40l-64-9.6v49.6zM416 43.558l-256-38.399v271.283l256 38.4v-271.284z" />
<glyph unicode="&#xe0d1;" d="M352 384v16c0 44.183-35.817 80-80 80-18.011 0-34.629-5.955-48-15.999-13.371 10.044-29.989 15.999-48 15.999-44.183 0-80-35.817-80-80v-54.4l-64-9.6v-336h64l32-32 320 48v336l-96 32zM64 60v8h32v-8h-32zM96 52v-8h-32v8h32zM64 76v8h32v-8h-32zM64 92v8h32v-8h-32zM64 108v8h32v-8h-32zM64 124v8h32v-8h-32zM64 140v8h32v-8h-32zM64 156v8h32v-8h-32zM64 172v8h32v-8h-32zM64 188v8h32v-8h-32zM64 204v8h32v-8h-32zM64 220v8h32v-8h-32zM64 236v8h32v-8h-32zM64 252v8h32v-8h-32zM64 268v8h32v-8h-32zM64 284v8h32v-8h-32zM64 300v8h32v-8h-32zM64 32v4h32v-4h-32zM380 309.442l8 1.2v-271.284l-8-1.199v271.283zM372 36.958l-8-1.2v271.284l8 1.2v-271.284zM396 311.842l8 1.2v-271.284l-8-1.2v271.284zM356 305.842v-271.284l-8-1.2v271.284l8 1.2zM252 290.242l8 1.2v-271.284l-8-1.2v271.284zM244 17.758l-8-1.2v271.284l8 1.2v-271.284zM268 292.642l8 1.2v-271.284l-8-1.199v271.283zM284 295.042l8 1.2v-271.284l-8-1.2v271.284zM300 297.442l8 1.2v-271.284l-8-1.199v271.283zM316 299.842l8 1.2v-271.284l-8-1.2v271.284zM332 302.242l8 1.2v-271.284l-8-1.2v271.284zM272 448c26.468 0 48-21.533 48-48v-20.8l-64-9.6v30.4c0 14.531-3.894 28.145-10.666 39.89 7.633 5.118 16.806 8.11 26.666 8.11zM228 286.642v-271.283l-8-1.2v271.283l8 1.2zM180 279.442v-271.284l-8-1.2v271.284l8 1.2zM188 280.642l8 1.2v-271.283l-8-1.2v271.283zM204 283.042l8 1.2v-271.284l-8-1.2v271.284zM128 400c0 26.467 21.533 48 48 48 9.86 0 19.033-2.992 26.666-8.111-6.772-11.744-10.666-25.358-10.666-39.889v-40l-64-9.6v49.6zM160 276.442l4 0.6v-271.284l-4-0.6v271.284zM416 43.558l-4-0.6v271.284l4 0.6v-271.284z" />
</font>
</defs>
</svg>
